  0
SECTION
  2
HEADER
  9
$ACADVER
  1
AC1024
  9
$ACADMAINTVER
 70
     6
  9
$DWGCODEPAGE
  3
ANSI_1250
  9
$LASTSAVEDBY
  1
Petr
  9
$INSBASE
 10
0.0
 20
0.0
 30
0.0
  9
$EXTMIN
 10
-1029.947451812
 20
-654.6853637699999
 30
0.0
  9
$EXTMAX
 10
-318.862426758
 20
648.916015625
 30
0.0
  9
$LIMMIN
 10
0.0
 20
0.0
  9
$LIMMAX
 10
0.0
 20
0.0
  9
$ORTHOMODE
 70
     0
  9
$REGENMODE
 70
     1
  9
$FILLMODE
 70
     1
  9
$QTEXTMODE
 70
     0
  9
$MIRRTEXT
 70
     1
  9
$LTSCALE
 40
1.0
  9
$ATTMODE
 70
     1
  9
$TEXTSIZE
 40
0.0
  9
$TRACEWID
 40
0.05
  9
$TEXTSTYLE
  7
Standard
  9
$CLAYER
  8
ASSI
  9
$CELTYPE
  6
Continuous
  9
$CECOLOR
 62
   256
  9
$CELTSCALE
 40
1.0
  9
$DISPSILH
 70
     0
  9
$DIMSCALE
 40
1.0
  9
$DIMASZ
 40
3.5
  9
$DIMEXO
 40
4.0
  9
$DIMDLI
 40
0.38
  9
$DIMRND
 40
0.0
  9
$DIMDLE
 40
0.0
  9
$DIMEXE
 40
4.0
  9
$DIMTP
 40
0.0
  9
$DIMTM
 40
0.0
  9
$DIMTXT
 40
3.5
  9
$DIMCEN
 40
0.09
  9
$DIMTSZ
 40
0.0
  9
$DIMTOL
 70
     0
  9
$DIMLIM
 70
     0
  9
$DIMTIH
 70
     0
  9
$DIMTOH
 70
     0
  9
$DIMSE1
 70
     0
  9
$DIMSE2
 70
     0
  9
$DIMTAD
 70
     1
  9
$DIMZIN
 70
     0
  9
$DIMBLK
  1

  9
$DIMASO
 70
     1
  9
$DIMSHO
 70
     1
  9
$DIMPOST
  1

  9
$DIMAPOST
  1

  9
$DIMALT
 70
     0
  9
$DIMALTD
 70
     2
  9
$DIMALTF
 40
25.4
  9
$DIMLFAC
 40
1.0
  9
$DIMTOFL
 70
     1
  9
$DIMTVP
 40
0.0
  9
$DIMTIX
 70
     0
  9
$DIMSOXD
 70
     0
  9
$DIMSAH
 70
     0
  9
$DIMBLK1
  1

  9
$DIMBLK2
  1

  9
$DIMSTYLE
  2
Standard
  9
$DIMCLRD
 70
     7
  9
$DIMCLRE
 70
     7
  9
$DIMCLRT
 70
    50
  9
$DIMTFAC
 40
1.0
  9
$DIMGAP
 40
0.09
  9
$DIMJUST
 70
     0
  9
$DIMSD1
 70
     0
  9
$DIMSD2
 70
     0
  9
$DIMTOLJ
 70
     1
  9
$DIMTZIN
 70
     0
  9
$DIMALTZ
 70
     0
  9
$DIMALTTZ
 70
     0
  9
$DIMUPT
 70
     0
  9
$DIMDEC
 70
     0
  9
$DIMTDEC
 70
     4
  9
$DIMALTU
 70
     2
  9
$DIMALTTD
 70
     2
  9
$DIMTXSTY
  7
Standard
  9
$DIMAUNIT
 70
     0
  9
$DIMADEC
 70
     0
  9
$DIMALTRND
 40
0.0
  9
$DIMAZIN
 70
     0
  9
$DIMDSEP
 70
     0
  9
$DIMATFIT
 70
     1
  9
$DIMFRAC
 70
     0
  9
$DIMLDRBLK
  1

  9
$DIMLUNIT
 70
     2
  9
$DIMLWD
 70
     0
  9
$DIMLWE
 70
     0
  9
$DIMTMOVE
 70
     0
  9
$DIMFXL
 40
1.0
  9
$DIMFXLON
 70
     0
  9
$DIMJOGANG
 40
0.7853981633974483
  9
$DIMTFILL
 70
     0
  9
$DIMTFILLCLR
 70
     0
  9
$DIMARCSYM
 70
     0
  9
$DIMLTYPE
  6

  9
$DIMLTEX1
  6

  9
$DIMLTEX2
  6

  9
$DIMTXTDIRECTION
 70
     0
  9
$LUNITS
 70
     2
  9
$LUPREC
 70
     0
  9
$SKETCHINC
 40
0.1
  9
$FILLETRAD
 40
0.0
  9
$AUNITS
 70
     0
  9
$AUPREC
 70
     2
  9
$MENU
  1
acad
  9
$ELEVATION
 40
0.0
  9
$PELEVATION
 40
0.0
  9
$THICKNESS
 40
0.0
  9
$LIMCHECK
 70
     0
  9
$CHAMFERA
 40
0.0
  9
$CHAMFERB
 40
0.0
  9
$CHAMFERC
 40
0.0
  9
$CHAMFERD
 40
0.0
  9
$SKPOLY
 70
     0
  9
$TDCREATE
 40
2455467.466674988
  9
$TDUCREATE
 40
2455467.383341655
  9
$TDUPDATE
 40
2455467.468114572
  9
$TDUUPDATE
 40
2455467.384781239
  9
$TDINDWG
 40
0.0012870023
  9
$TDUSRTIMER
 40
0.0012869444
  9
$USRTIMER
 70
     1
  9
$ANGBASE
 50
0.0
  9
$ANGDIR
 70
     0
  9
$PDMODE
 70
     2
  9
$PDSIZE
 40
-1.0
  9
$PLINEWID
 40
0.0
  9
$SPLFRAME
 70
     0
  9
$SPLINETYPE
 70
     6
  9
$SPLINESEGS
 70
     8
  9
$HANDSEED
  5
447
  9
$SURFTAB1
 70
     6
  9
$SURFTAB2
 70
     6
  9
$SURFTYPE
 70
     6
  9
$SURFU
 70
     6
  9
$SURFV
 70
     6
  9
$UCSBASE
  2

  9
$UCSNAME
  2

  9
$UCSORG
 10
0.0
 20
0.0
 30
0.0
  9
$UCSXDIR
 10
1.0
 20
0.0
 30
0.0
  9
$UCSYDIR
 10
0.0
 20
1.0
 30
0.0
  9
$UCSORTHOREF
  2

  9
$UCSORTHOVIEW
 70
     0
  9
$UCSORGTOP
 10
0.0
 20
0.0
 30
0.0
  9
$UCSORGBOTTOM
 10
0.0
 20
0.0
 30
0.0
  9
$UCSORGLEFT
 10
0.0
 20
0.0
 30
0.0
  9
$UCSORGRIGHT
 10
0.0
 20
0.0
 30
0.0
  9
$UCSORGFRONT
 10
0.0
 20
0.0
 30
0.0
  9
$UCSORGBACK
 10
0.0
 20
0.0
 30
0.0
  9
$PUCSBASE
  2

  9
$PUCSNAME
  2

  9
$PUCSORG
 10
0.0
 20
0.0
 30
0.0
  9
$PUCSXDIR
 10
1.0
 20
0.0
 30
0.0
  9
$PUCSYDIR
 10
0.0
 20
1.0
 30
0.0
  9
$PUCSORTHOREF
  2

  9
$PUCSORTHOVIEW
 70
     0
  9
$PUCSORGTOP
 10
0.0
 20
0.0
 30
0.0
  9
$PUCSORGBOTTOM
 10
0.0
 20
0.0
 30
0.0
  9
$PUCSORGLEFT
 10
0.0
 20
0.0
 30
0.0
  9
$PUCSORGRIGHT
 10
0.0
 20
0.0
 30
0.0
  9
$PUCSORGFRONT
 10
0.0
 20
0.0
 30
0.0
  9
$PUCSORGBACK
 10
0.0
 20
0.0
 30
0.0
  9
$USERI1
 70
     0
  9
$USERI2
 70
     0
  9
$USERI3
 70
     0
  9
$USERI4
 70
     0
  9
$USERI5
 70
     0
  9
$USERR1
 40
0.0
  9
$USERR2
 40
0.0
  9
$USERR3
 40
0.0
  9
$USERR4
 40
0.0
  9
$USERR5
 40
0.0
  9
$WORLDVIEW
 70
     1
  9
$SHADEDGE
 70
     3
  9
$SHADEDIF
 70
    70
  9
$TILEMODE
 70
     1
  9
$MAXACTVP
 70
    16
  9
$PINSBASE
 10
0.0
 20
0.0
 30
0.0
  9
$PLIMCHECK
 70
     0
  9
$PEXTMIN
 10
1.000000000000000E+20
 20
1.000000000000000E+20
 30
1.000000000000000E+20
  9
$PEXTMAX
 10
-1.000000000000000E+20
 20
-1.000000000000000E+20
 30
-1.000000000000000E+20
  9
$PLIMMIN
 10
0.0
 20
0.0
  9
$PLIMMAX
 10
12.0
 20
9.0
  9
$UNITMODE
 70
     0
  9
$VISRETAIN
 70
     0
  9
$PLINEGEN
 70
     1
  9
$PSLTSCALE
 70
     0
  9
$TREEDEPTH
 70
  3020
  9
$CMLSTYLE
  2
Standard
  9
$CMLJUST
 70
     0
  9
$CMLSCALE
 40
1.0
  9
$PROXYGRAPHICS
 70
     0
  9
$MEASUREMENT
 70
     1
  9
$CELWEIGHT
370
     0
  9
$ENDCAPS
280
     0
  9
$JOINSTYLE
280
     0
  9
$LWDISPLAY
290
     0
  9
$INSUNITS
 70
     0
  9
$HYPERLINKBASE
  1

  9
$STYLESHEET
  1

  9
$XEDIT
290
     1
  9
$CEPSNTYPE
380
     0
  9
$PSTYLEMODE
290
     1
  9
$FINGERPRINTGUID
  2

  9
$VERSIONGUID
  2
{973B8060-DE29-4670-8E15-EE12EAD0C239}
  9
$EXTNAMES
290
     1
  9
$PSVPSCALE
 40
0.0
  9
$OLESTARTUP
290
     0
  9
$SORTENTS
280
   127
  9
$INDEXCTL
280
     0
  9
$HIDETEXT
280
     0
  9
$XCLIPFRAME
280
     2
  9
$HALOGAP
280
     0
  9
$OBSCOLOR
 70
   257
  9
$OBSLTYPE
280
     0
  9
$INTERSECTIONDISPLAY
280
     0
  9
$INTERSECTIONCOLOR
 70
   257
  9
$DIMASSOC
280
     1
  9
$PROJECTNAME
  1

  9
$CAMERADISPLAY
290
     0
  9
$LENSLENGTH
 40
50.0
  9
$CAMERAHEIGHT
 40
0.0
  9
$STEPSPERSEC
 40
2.0
  9
$STEPSIZE
 40
6.0
  9
$3DDWFPREC
 40
2.0
  9
$PSOLWIDTH
 40
0.25
  9
$PSOLHEIGHT
 40
4.0
  9
$LOFTANG1
 40
1.570796326794896
  9
$LOFTANG2
 40
1.570796326794896
  9
$LOFTMAG1
 40
0.0
  9
$LOFTMAG2
 40
0.0
  9
$LOFTPARAM
 70
     7
  9
$LOFTNORMALS
280
     1
  9
$LATITUDE
 40
37.795
  9
$LONGITUDE
 40
-122.394
  9
$NORTHDIRECTION
 40
0.0
  9
$TIMEZONE
 70
 -8000
  9
$LIGHTGLYPHDISPLAY
280
     1
  9
$TILEMODELIGHTSYNCH
280
     1
  9
$CMATERIAL
347
38E
  9
$SOLIDHIST
280
     1
  9
$SHOWHIST
280
     1
  9
$DWFFRAME
280
     2
  9
$DGNFRAME
280
     0
  9
$REALWORLDSCALE
290
     1
  9
$INTERFERECOLOR
 62
     1
  9
$INTERFEREOBJVS
345
3B0
  9
$INTERFEREVPVS
346
3AD
  9
$CSHADOW
280
     0
  9
$SHADOWPLANELOCATION
 40
0.0
  0
ENDSEC
  0
SECTION
  2
CLASSES
  0
CLASS
  1
IMAGE
  2
AcDbRasterImage
  3
ISM
 90
      127
 91
        0
280
     0
281
     1
  0
CLASS
  1
DICTIONARYVAR
  2
AcDbDictionaryVar
  3
ObjectDBX Classes
 90
        0
 91
        7
280
     0
281
     0
  0
CLASS
  1
RASTERVARIABLES
  2
AcDbRasterVariables
  3
ISM
 90
        0
 91
        0
280
     0
281
     0
  0
CLASS
  1
IMAGEDEF
  2
AcDbRasterImageDef
  3
ISM
 90
        0
 91
        0
280
     0
281
     0
  0
CLASS
  1
IMAGEDEF_REACTOR
  2
AcDbRasterImageDefReactor
  3
ISM
 90
        1
 91
        0
280
     0
281
     0
  0
CLASS
  1
IDBUFFER
  2
AcDbIdBuffer
  3
ObjectDBX Classes
 90
        0
 91
        0
280
     0
281
     0
  0
CLASS
  1
SPATIAL_FILTER
  2
AcDbSpatialFilter
  3
ObjectDBX Classes
 90
        0
 91
        0
280
     0
281
     0
  0
CLASS
  1
SORTENTSTABLE
  2
AcDbSortentsTable
  3
ObjectDBX Classes
 90
        0
 91
        0
280
     0
281
     0
  0
CLASS
  1
LAYER_INDEX
  2
AcDbLayerIndex
  3
ObjectDBX Classes
 90
        0
 91
        0
280
     0
281
     0
  0
CLASS
  1
SPATIAL_INDEX
  2
AcDbSpatialIndex
  3
ObjectDBX Classes
 90
        0
 91
        0
280
     0
281
     0
  0
CLASS
  1
OBJECT_PTR
  2
CAseDLPNTableRecord
  3
"ASE-LPNTableRecord"
 90
        1
 91
        0
280
     0
281
     0
  0
CLASS
  1
PLOTSETTINGS
  2
AcDbPlotSettings
  3
ObjectDBX Classes
 90
        0
 91
        0
280
     0
281
     0
  0
CLASS
  1
ACDBDICTIONARYWDFLT
  2
AcDbDictionaryWithDefault
  3
ObjectDBX Classes
 90
        0
 91
        1
280
     0
281
     0
  0
CLASS
  1
MATERIAL
  2
AcDbMaterial
  3
ObjectDBX Classes
 90
     1153
 91
        3
280
     0
281
     0
  0
CLASS
  1
VISUALSTYLE
  2
AcDbVisualStyle
  3
ObjectDBX Classes
 90
     4095
 91
       19
280
     0
281
     0
  0
CLASS
  1
TABLESTYLE
  2
AcDbTableStyle
  3
ObjectDBX Classes
 90
     4095
 91
        1
280
     0
281
     0
  0
CLASS
  1
SCALE
  2
AcDbScale
  3
ObjectDBX Classes
 90
     1153
 91
       17
280
     0
281
     0
  0
CLASS
  1
MLEADERSTYLE
  2
AcDbMLeaderStyle
  3
ACDB_MLEADERSTYLE_CLASS
 90
     4095
 91
        1
280
     0
281
     0
  0
CLASS
  1
CELLSTYLEMAP
  2
AcDbCellStyleMap
  3
ObjectDBX Classes
 90
     1152
 91
        1
280
     0
281
     0
  0
ENDSEC
  0
SECTION
  2
TABLES
  0
TABLE
  2
VPORT
  5
7
330
0
100
AcDbSymbolTable
 70
     1
  0
VPORT
  5
15
330
7
100
AcDbSymbolTableRecord
100
AcDbViewportTableRecord
  2
*ACTIVE
 70
     0
 10
0.0
 20
0.0
 11
1.0
 21
1.0
 12
-453.99826940306
 22
-73.06664852514519
 13
0.0
 23
0.0
 14
1.0
 24
1.0
 15
0.0
 25
0.0
 16
0.0
 26
0.0
 36
1.0
 17
0.0
 27
0.0
 37
0.0
 40
2109.451592869431
 41
2.407129455909943
 42
50.0
 43
0.0
 44
0.0
 50
0.0
 51
0.0
 71
     0
 72
   100
 73
     1
 74
     1
 75
     0
 76
     0
 77
     0
 78
     0
281
     0
 65
     0
110
0.0
120
0.0
130
0.0
111
1.0
121
0.0
131
0.0
112
0.0
122
1.0
132
0.0
 79
     0
146
0.0
348
3AC
 60
     3
 61
     5
292
     1
282
     1
141
0.0
142
0.0
 63
   250
421
  3355443
  0
ENDTAB
  0
TABLE
  2
LTYPE
  5
4
330
0
100
AcDbSymbolTable
 70
     3
  0
LTYPE
  5
11
330
4
100
AcDbSymbolTableRecord
100
AcDbLinetypeTableRecord
  2
ByBlock
 70
     0
  3

 72
    65
 73
     0
 40
0.0
  0
LTYPE
  5
12
330
4
100
AcDbSymbolTableRecord
100
AcDbLinetypeTableRecord
  2
ByLayer
 70
     0
  3

 72
    65
 73
     0
 40
0.0
  0
LTYPE
  5
13
330
4
100
AcDbSymbolTableRecord
100
AcDbLinetypeTableRecord
  2
Continuous
 70
     0
  3
Solid line
 72
    65
 73
     0
 40
0.0
  0
LTYPE
  5
55
330
4
100
AcDbSymbolTableRecord
100
AcDbLinetypeTableRecord
  2
SOLID
 70
     0
  3
Solid line
 72
    65
 73
     0
 40
0.0
  0
LTYPE
  5
8D
330
4
100
AcDbSymbolTableRecord
100
AcDbLinetypeTableRecord
  2
CENTER
 70
     0
  3
Center ____ _ ____ _ ____ _ ____ _ ____ _ ____
 72
    65
 73
     4
 40
8.0
 49
4.5
 74
     0
 49
-1.5
 74
     0
 49
0.5
 74
     0
 49
-1.5
 74
     0
  0
ENDTAB
  0
TABLE
  2
LAYER
  5
2
330
0
100
AcDbSymbolTable
 70
    51
  0
LAYER
  5
14
102
{ACAD_XDICTIONARY
360
3D2
102
}
330
2
100
AcDbSymbolTableRecord
100
AcDbLayerTableRecord
  2
0
 70
     0
 62
     7
  6
Continuous
370
    -3
390
1D
347
39E
  0
LAYER
  5
23
102
{ACAD_XDICTIONARY
360
3D4
102
}
330
2
100
AcDbSymbolTableRecord
100
AcDbLayerTableRecord
  2
ASSI
 70
     0
 62
     7
  6
Continuous
370
    -3
390
1F
347
39E
  0
LAYER
  5
24
102
{ACAD_XDICTIONARY
360
3D6
102
}
330
2
100
AcDbSymbolTableRecord
100
AcDbLayerTableRecord
  2
GEOM
 70
     0
 62
     7
  6
Continuous
370
    -3
390
1F
347
39E
  0
LAYER
  5
25
102
{ACAD_XDICTIONARY
360
3D8
102
}
330
2
100
AcDbSymbolTableRecord
100
AcDbLayerTableRecord
  2
QUOTE
 70
     0
 62
     7
  6
Continuous
370
    -3
390
1F
347
39E
  0
LAYER
  5
26
102
{ACAD_XDICTIONARY
360
3DA
102
}
330
2
100
AcDbSymbolTableRecord
100
AcDbLayerTableRecord
  2
FA
 70
     0
 62
     7
  6
Continuous
370
    -3
390
1F
347
39E
  0
LAYER
  5
27
102
{ACAD_XDICTIONARY
360
3DC
102
}
330
2
100
AcDbSymbolTableRecord
100
AcDbLayerTableRecord
  2
CORPO
 70
     0
 62
     7
  6
Continuous
370
    -3
390
1F
347
39E
  0
LAYER
  5
28
102
{ACAD_XDICTIONARY
360
3DE
102
}
330
2
100
AcDbSymbolTableRecord
100
AcDbLayerTableRecord
  2
AL
 70
     0
 62
     7
  6
Continuous
370
    -3
390
1F
347
39E
  0
LAYER
  5
29
102
{ACAD_XDICTIONARY
360
3E0
102
}
330
2
100
AcDbSymbolTableRecord
100
AcDbLayerTableRecord
  2
CORONA
 70
     0
 62
     7
  6
Continuous
370
    -3
390
1F
347
39E
  0
LAYER
  5
2A
102
{ACAD_XDICTIONARY
360
3E2
102
}
330
2
100
AcDbSymbolTableRecord
100
AcDbLayerTableRecord
  2
PLOT
 70
     0
 62
     7
  6
Continuous
370
    -3
390
1F
347
39E
  0
LAYER
  5
2B
102
{ACAD_XDICTIONARY
360
3E4
102
}
330
2
100
AcDbSymbolTableRecord
100
AcDbLayerTableRecord
  2
PLOT5
 70
     0
 62
     7
  6
Continuous
370
    -3
390
1F
347
39E
  0
LAYER
  5
2C
102
{ACAD_XDICTIONARY
360
3E6
102
}
330
2
100
AcDbSymbolTableRecord
100
AcDbLayerTableRecord
  2
STUDI
 70
     0
 62
     7
  6
Continuous
370
    -3
390
1F
347
39E
  0
LAYER
  5
2D
102
{ACAD_XDICTIONARY
360
3E8
102
}
330
2
100
AcDbSymbolTableRecord
100
AcDbLayerTableRecord
  2
COMMER
 70
     0
 62
     7
  6
Continuous
370
    -3
390
1F
347
39E
  0
LAYER
  5
2E
102
{ACAD_XDICTIONARY
360
3EA
102
}
330
2
100
AcDbSymbolTableRecord
100
AcDbLayerTableRecord
  2
12
 70
     0
 62
     7
  6
Continuous
370
    -3
390
1F
347
39E
  0
LAYER
  5
2F
102
{ACAD_XDICTIONARY
360
3EC
102
}
330
2
100
AcDbSymbolTableRecord
100
AcDbLayerTableRecord
  2
STATOR
 70
     0
 62
     7
  6
Continuous
370
    -3
390
1F
347
39E
  0
LAYER
  5
30
102
{ACAD_XDICTIONARY
360
3EE
102
}
330
2
100
AcDbSymbolTableRecord
100
AcDbLayerTableRecord
  2
FB
 70
     0
 62
     7
  6
Continuous
370
    -3
390
1F
347
39E
  0
LAYER
  5
31
102
{ACAD_XDICTIONARY
360
3F0
102
}
330
2
100
AcDbSymbolTableRecord
100
AcDbLayerTableRecord
  2
VSF
 70
     0
 62
     7
  6
Continuous
370
    -3
390
1F
347
39E
  0
LAYER
  5
32
102
{ACAD_XDICTIONARY
360
3F2
102
}
330
2
100
AcDbSymbolTableRecord
100
AcDbLayerTableRecord
  2
16
 70
     0
 62
     7
  6
Continuous
370
    -3
390
1F
347
39E
  0
LAYER
  5
33
102
{ACAD_XDICTIONARY
360
3F4
102
}
330
2
100
AcDbSymbolTableRecord
100
AcDbLayerTableRecord
  2
TA
 70
     0
 62
     7
  6
Continuous
370
    -3
390
1F
347
39E
  0
LAYER
  5
34
102
{ACAD_XDICTIONARY
360
3F6
102
}
330
2
100
AcDbSymbolTableRecord
100
AcDbLayerTableRecord
  2
PLOT1
 70
     0
 62
     7
  6
Continuous
370
    -3
390
1F
347
39E
  0
LAYER
  5
35
102
{ACAD_XDICTIONARY
360
3F8
102
}
330
2
100
AcDbSymbolTableRecord
100
AcDbLayerTableRecord
  2
19
 70
     0
 62
     7
  6
Continuous
370
    -3
390
1F
347
39E
  0
LAYER
  5
36
102
{ACAD_XDICTIONARY
360
3FA
102
}
330
2
100
AcDbSymbolTableRecord
100
AcDbLayerTableRecord
  2
20
 70
     0
 62
     7
  6
Continuous
370
    -3
390
1F
347
39E
  0
LAYER
  5
37
102
{ACAD_XDICTIONARY
360
3FC
102
}
330
2
100
AcDbSymbolTableRecord
100
AcDbLayerTableRecord
  2
COMM2
 70
     0
 62
     7
  6
Continuous
370
    -3
390
1F
347
39E
  0
LAYER
  5
38
102
{ACAD_XDICTIONARY
360
3FE
102
}
330
2
100
AcDbSymbolTableRecord
100
AcDbLayerTableRecord
  2
22
 70
     0
 62
     7
  6
Continuous
370
    -3
390
1F
347
39E
  0
LAYER
  5
39
102
{ACAD_XDICTIONARY
360
400
102
}
330
2
100
AcDbSymbolTableRecord
100
AcDbLayerTableRecord
  2
ROTORE
 70
     0
 62
     7
  6
Continuous
370
    -3
390
1F
347
39E
  0
LAYER
  5
3A
102
{ACAD_XDICTIONARY
360
402
102
}
330
2
100
AcDbSymbolTableRecord
100
AcDbLayerTableRecord
  2
FC
 70
     0
 62
     7
  6
Continuous
370
    -3
390
1F
347
39E
  0
LAYER
  5
3B
102
{ACAD_XDICTIONARY
360
404
102
}
330
2
100
AcDbSymbolTableRecord
100
AcDbLayerTableRecord
  2
REGG
 70
     0
 62
     7
  6
Continuous
370
    -3
390
1F
347
39E
  0
LAYER
  5
3C
102
{ACAD_XDICTIONARY
360
406
102
}
330
2
100
AcDbSymbolTableRecord
100
AcDbLayerTableRecord
  2
FIGUR1
 70
     0
 62
     7
  6
Continuous
370
    -3
390
1F
347
39E
  0
LAYER
  5
3D
102
{ACAD_XDICTIONARY
360
408
102
}
330
2
100
AcDbSymbolTableRecord
100
AcDbLayerTableRecord
  2
TB
 70
     0
 62
     7
  6
Continuous
370
    -3
390
1F
347
39E
  0
LAYER
  5
3E
102
{ACAD_XDICTIONARY
360
40A
102
}
330
2
100
AcDbSymbolTableRecord
100
AcDbLayerTableRecord
  2
PLOT2
 70
     0
 62
     7
  6
Continuous
370
    -3
390
1F
347
39E
  0
LAYER
  5
3F
102
{ACAD_XDICTIONARY
360
40C
102
}
330
2
100
AcDbSymbolTableRecord
100
AcDbLayerTableRecord
  2
NASCOS
 70
     0
 62
     7
  6
Continuous
370
    -3
390
1F
347
39E
  0
LAYER
  5
40
102
{ACAD_XDICTIONARY
360
40E
102
}
330
2
100
AcDbSymbolTableRecord
100
AcDbLayerTableRecord
  2
PROVE
 70
     0
 62
     7
  6
Continuous
370
    -3
390
1F
347
39E
  0
LAYER
  5
41
102
{ACAD_XDICTIONARY
360
410
102
}
330
2
100
AcDbSymbolTableRecord
100
AcDbLayerTableRecord
  2
31
 70
     0
 62
     7
  6
Continuous
370
    -3
390
1F
347
39E
  0
LAYER
  5
42
102
{ACAD_XDICTIONARY
360
412
102
}
330
2
100
AcDbSymbolTableRecord
100
AcDbLayerTableRecord
  2
GIUNTO
 70
     0
 62
     7
  6
Continuous
370
    -3
390
1F
347
39E
  0
LAYER
  5
43
102
{ACAD_XDICTIONARY
360
414
102
}
330
2
100
AcDbSymbolTableRecord
100
AcDbLayerTableRecord
  2
30F0
 70
     0
 62
     7
  6
Continuous
370
    -3
390
1F
347
39E
  0
LAYER
  5
44
102
{ACAD_XDICTIONARY
360
416
102
}
330
2
100
AcDbSymbolTableRecord
100
AcDbLayerTableRecord
  2
GANASC
 70
     0
 62
     7
  6
Continuous
370
    -3
390
1F
347
39E
  0
LAYER
  5
45
102
{ACAD_XDICTIONARY
360
418
102
}
330
2
100
AcDbSymbolTableRecord
100
AcDbLayerTableRecord
  2
CARMOT
 70
     0
 62
     7
  6
Continuous
370
    -3
390
1F
347
39E
  0
LAYER
  5
46
102
{ACAD_XDICTIONARY
360
41A
102
}
330
2
100
AcDbSymbolTableRecord
100
AcDbLayerTableRecord
  2
36
 70
     0
 62
     7
  6
Continuous
370
    -3
390
1F
347
39E
  0
LAYER
  5
47
102
{ACAD_XDICTIONARY
360
41C
102
}
330
2
100
AcDbSymbolTableRecord
100
AcDbLayerTableRecord
  2
TC
 70
     0
 62
     7
  6
Continuous
370
    -3
390
1F
347
39E
  0
LAYER
  5
48
102
{ACAD_XDICTIONARY
360
41E
102
}
330
2
100
AcDbSymbolTableRecord
100
AcDbLayerTableRecord
  2
PLOT3
 70
     0
 62
     7
  6
Continuous
370
    -3
390
1F
347
39E
  0
LAYER
  5
49
102
{ACAD_XDICTIONARY
360
420
102
}
330
2
100
AcDbSymbolTableRecord
100
AcDbLayerTableRecord
  2
39
 70
     0
 62
     7
  6
Continuous
370
    -3
390
1F
347
39E
  0
LAYER
  5
4A
102
{ACAD_XDICTIONARY
360
422
102
}
330
2
100
AcDbSymbolTableRecord
100
AcDbLayerTableRecord
  2
40
 70
     0
 62
     7
  6
Continuous
370
    -3
390
1F
347
39E
  0
LAYER
  5
4B
102
{ACAD_XDICTIONARY
360
424
102
}
330
2
100
AcDbSymbolTableRecord
100
AcDbLayerTableRecord
  2
CANOTT
 70
     0
 62
     7
  6
Continuous
370
    -3
390
1F
347
39E
  0
LAYER
  5
4C
102
{ACAD_XDICTIONARY
360
426
102
}
330
2
100
AcDbSymbolTableRecord
100
AcDbLayerTableRecord
  2
FIERA
 70
     0
 62
     7
  6
Continuous
370
    -3
390
1F
347
39E
  0
LAYER
  5
4D
102
{ACAD_XDICTIONARY
360
428
102
}
330
2
100
AcDbSymbolTableRecord
100
AcDbLayerTableRecord
  2
SUPCUS
 70
     0
 62
     7
  6
Continuous
370
    -3
390
1F
347
39E
  0
LAYER
  5
4E
102
{ACAD_XDICTIONARY
360
42A
102
}
330
2
100
AcDbSymbolTableRecord
100
AcDbLayerTableRecord
  2
30A0
 70
     0
 62
     7
  6
Continuous
370
    -3
390
1F
347
39E
  0
LAYER
  5
4F
102
{ACAD_XDICTIONARY
360
42C
102
}
330
2
100
AcDbSymbolTableRecord
100
AcDbLayerTableRecord
  2
ENCLEO
 70
     0
 62
     7
  6
Continuous
370
    -3
390
1F
347
39E
  0
LAYER
  5
50
102
{ACAD_XDICTIONARY
360
42E
102
}
330
2
100
AcDbSymbolTableRecord
100
AcDbLayerTableRecord
  2
PRREGG
 70
     0
 62
     7
  6
Continuous
370
    -3
390
1F
347
39E
  0
LAYER
  5
51
102
{ACAD_XDICTIONARY
360
430
102
}
330
2
100
AcDbSymbolTableRecord
100
AcDbLayerTableRecord
  2
FIGURI
 70
     0
 62
     7
  6
Continuous
370
    -3
390
1F
347
39E
  0
LAYER
  5
52
102
{ACAD_XDICTIONARY
360
432
102
}
330
2
100
AcDbSymbolTableRecord
100
AcDbLayerTableRecord
  2
PLOT4
 70
     0
 62
     7
  6
Continuous
370
    -3
390
1F
347
39E
  0
LAYER
  5
53
102
{ACAD_XDICTIONARY
360
434
102
}
330
2
100
AcDbSymbolTableRecord
100
AcDbLayerTableRecord
  2
WARNER
 70
     0
 62
     7
  6
Continuous
370
    -3
390
1F
347
39E
  0
LAYER
  5
54
102
{ACAD_XDICTIONARY
360
436
102
}
330
2
100
AcDbSymbolTableRecord
100
AcDbLayerTableRecord
  2
VENMOR
 70
     0
 62
     7
  6
Continuous
370
    -3
390
1F
347
39E
  0
ENDTAB
  0
TABLE
  2
STYLE
  5
3
330
0
100
AcDbSymbolTable
 70
     1
  0
STYLE
  5
17
330
3
100
AcDbSymbolTableRecord
100
AcDbTextStyleTableRecord
  2
Standard
 70
     0
 40
0.0
 41
1.0
 50
0.0
 71
     0
 42
0.0
  3
txt
  4

  0
ENDTAB
  0
TABLE
  2
VIEW
  5
5
330
0
100
AcDbSymbolTable
 70
     0
  0
ENDTAB
  0
TABLE
  2
UCS
  5
6
330
0
100
AcDbSymbolTable
 70
     0
  0
ENDTAB
  0
TABLE
  2
APPID
  5
8
330
0
100
AcDbSymbolTable
 70
     1
  0
APPID
  5
16
330
8
100
AcDbSymbolTableRecord
100
AcDbRegAppTableRecord
  2
ACAD
 70
     0
  0
ENDTAB
  0
TABLE
  2
DIMSTYLE
  5
9
330
0
100
AcDbSymbolTable
 70
    12
100
AcDbDimStyleTable
 71
     0
  0
DIMSTYLE
105
18
330
9
100
AcDbSymbolTableRecord
100
AcDbDimStyleTableRecord
  2
Standard
 70
     0
 41
3.5
 42
4.0
 44
4.0
 73
     0
 74
     0
 77
     1
140
3.5
172
     1
176
     7
177
     7
178
    50
340
17
  0
DIMSTYLE
105
12D
102
{ACAD_REACTORS
330
12E
102
}
330
9
100
AcDbSymbolTableRecord
100
AcDbDimStyleTableRecord
  2
2
 70
     0
 41
3.5
 42
4.0
 44
4.0
 73
     0
 74
     0
 77
     1
140
3.5
172
     1
176
     7
177
     7
178
     7
271
     0
340
17
  0
DIMSTYLE
105
13D
102
{ACAD_REACTORS
330
13E
102
}
330
9
100
AcDbSymbolTableRecord
100
AcDbDimStyleTableRecord
  2
3
 70
     0
 41
3.5
 42
4.0
 44
4.0
 73
     0
 74
     0
 77
     1
140
3.5
172
     1
176
     7
177
     7
178
     7
271
     0
340
17
  0
DIMSTYLE
105
14F
102
{ACAD_REACTORS
330
150
102
}
330
9
100
AcDbSymbolTableRecord
100
AcDbDimStyleTableRecord
  2
4
 70
     0
 41
3.5
 42
4.0
 44
4.0
 73
     0
 74
     0
 77
     1
140
3.5
172
     1
176
     7
177
     7
178
     7
271
     0
340
17
  0
DIMSTYLE
105
195
102
{ACAD_REACTORS
330
196
102
}
330
9
100
AcDbSymbolTableRecord
100
AcDbDimStyleTableRecord
  2
5
 70
     0
 41
3.5
 42
4.0
 44
4.0
 73
     0
 74
     0
 77
     1
140
3.5
172
     1
176
     7
177
     7
178
     7
271
     0
340
17
  0
DIMSTYLE
105
1A5
102
{ACAD_REACTORS
330
1A6
102
}
330
9
100
AcDbSymbolTableRecord
100
AcDbDimStyleTableRecord
  2
6
 70
     0
 41
3.5
 42
4.0
 44
4.0
 73
     0
 74
     0
 77
     1
140
3.5
172
     1
176
     7
177
     7
178
     7
271
     0
340
17
  0
DIMSTYLE
105
1D9
102
{ACAD_REACTORS
330
1DA
102
}
330
9
100
AcDbSymbolTableRecord
100
AcDbDimStyleTableRecord
  2
7
 70
     0
 41
3.5
 42
4.0
 44
4.0
 73
     0
 74
     0
 77
     1
140
3.5
172
     1
176
     7
177
     7
178
     7
271
     0
340
17
  0
DIMSTYLE
105
1E5
102
{ACAD_REACTORS
330
1E6
102
}
330
9
100
AcDbSymbolTableRecord
100
AcDbDimStyleTableRecord
  2
8
 70
     0
 41
3.5
 42
4.0
 44
4.0
 73
     0
 74
     0
 77
     1
140
3.5
172
     1
176
     7
177
     7
178
     7
271
     0
340
17
  0
DIMSTYLE
105
227
102
{ACAD_REACTORS
330
228
102
}
330
9
100
AcDbSymbolTableRecord
100
AcDbDimStyleTableRecord
  2
9
 70
     0
 41
3.5
 42
4.0
 44
4.0
 73
     0
 74
     0
 77
     1
140
3.5
172
     1
176
     7
177
     7
178
     7
271
     0
340
17
  0
DIMSTYLE
105
239
102
{ACAD_REACTORS
330
23A
102
}
330
9
100
AcDbSymbolTableRecord
100
AcDbDimStyleTableRecord
  2
10
 70
     0
 41
3.5
 42
4.0
 44
4.0
 73
     0
 74
     0
 77
     1
140
3.5
172
     1
176
     7
177
     7
178
     7
271
     0
340
17
  0
DIMSTYLE
105
2B3
102
{ACAD_REACTORS
330
2B4
102
}
330
9
100
AcDbSymbolTableRecord
100
AcDbDimStyleTableRecord
  2
11
 70
     0
 41
3.5
 42
4.0
 44
4.0
 73
     0
 74
     0
 77
     1
140
3.5
172
     1
176
     7
177
     7
178
     7
271
     0
340
17
  0
DIMSTYLE
105
2CC
102
{ACAD_REACTORS
330
2CD
102
}
330
9
100
AcDbSymbolTableRecord
100
AcDbDimStyleTableRecord
  2
12
 70
     0
 41
3.5
 42
4.0
 44
4.0
 73
     0
 74
     0
 77
     1
140
3.5
172
     1
176
     7
177
     7
178
     7
271
     0
340
17
  0
ENDTAB
  0
TABLE
  2
BLOCK_RECORD
  5
1
330
0
100
AcDbSymbolTable
 70
    14
  0
BLOCK_RECORD
  5
A
330
1
100
AcDbSymbolTableRecord
100
AcDbBlockTableRecord
  2
*MODEL_SPACE
340
20
 70
     0
280
     1
281
     0
  0
BLOCK_RECORD
  5
B
330
1
100
AcDbSymbolTableRecord
100
AcDbBlockTableRecord
  2
*PAPER_SPACE
340
21
 70
     0
280
     1
281
     0
  0
BLOCK_RECORD
  5
11D
330
1
100
AcDbSymbolTableRecord
100
AcDbBlockTableRecord
  2
*D0
340
0
 70
     0
280
     1
281
     0
  0
BLOCK_RECORD
  5
12F
330
1
100
AcDbSymbolTableRecord
100
AcDbBlockTableRecord
  2
*D1
340
0
 70
     0
280
     1
281
     0
  0
BLOCK_RECORD
  5
13F
330
1
100
AcDbSymbolTableRecord
100
AcDbBlockTableRecord
  2
*D2
340
0
 70
     0
280
     1
281
     0
  0
BLOCK_RECORD
  5
18B
330
1
100
AcDbSymbolTableRecord
100
AcDbBlockTableRecord
  2
*D3
340
0
 70
     0
280
     1
281
     0
  0
BLOCK_RECORD
  5
197
330
1
100
AcDbSymbolTableRecord
100
AcDbBlockTableRecord
  2
*D4
340
0
 70
     0
280
     1
281
     0
  0
BLOCK_RECORD
  5
1A8
330
1
100
AcDbSymbolTableRecord
100
AcDbBlockTableRecord
  2
*H55
340
0
102
{BLKREFS
331
1B0
102
}
 70
     0
280
     1
281
     0
  0
BLOCK_RECORD
  5
1C2
330
1
100
AcDbSymbolTableRecord
100
AcDbBlockTableRecord
  2
*H66
340
0
102
{BLKREFS
331
1CA
102
}
 70
     0
280
     1
281
     0
  0
BLOCK_RECORD
  5
1CB
330
1
100
AcDbSymbolTableRecord
100
AcDbBlockTableRecord
  2
*D7
340
0
 70
     0
280
     1
281
     0
  0
BLOCK_RECORD
  5
1DB
330
1
100
AcDbSymbolTableRecord
100
AcDbBlockTableRecord
  2
*D8
340
0
 70
     0
280
     1
281
     0
  0
BLOCK_RECORD
  5
219
330
1
100
AcDbSymbolTableRecord
100
AcDbBlockTableRecord
  2
*D9
340
0
 70
     0
280
     1
281
     0
  0
BLOCK_RECORD
  5
22A
330
1
100
AcDbSymbolTableRecord
100
AcDbBlockTableRecord
  2
*D10
340
0
 70
     0
280
     1
281
     0
  0
BLOCK_RECORD
  5
246
330
1
100
AcDbSymbolTableRecord
100
AcDbBlockTableRecord
  2
*H1111
340
0
102
{BLKREFS
331
24E
102
}
 70
     0
280
     1
281
     0
  0
BLOCK_RECORD
  5
2A5
330
1
100
AcDbSymbolTableRecord
100
AcDbBlockTableRecord
  2
*D12
340
0
 70
     0
280
     1
281
     0
  0
BLOCK_RECORD
  5
2BD
330
1
100
AcDbSymbolTableRecord
100
AcDbBlockTableRecord
  2
*D13
340
0
 70
     0
280
     1
281
     0
  0
ENDTAB
  0
ENDSEC
  0
SECTION
  2
BLOCKS
  0
BLOCK
  5
D
330
A
100
AcDbEntity
  8
0
100
AcDbBlockBegin
  2
*MODEL_SPACE
 70
     0
 10
0.0
 20
0.0
 30
0.0
  3
*MODEL_SPACE
  1

  0
ENDBLK
  5
E
330
A
100
AcDbEntity
  8
0
100
AcDbBlockEnd
  0
BLOCK
  5
F
330
B
100
AcDbEntity
 67
     1
  8
0
100
AcDbBlockBegin
  2
*PAPER_SPACE
 70
     0
 10
0.0
 20
0.0
 30
0.0
  3
*PAPER_SPACE
  1

  0
ENDBLK
  5
10
330
B
100
AcDbEntity
 67
     1
  8
0
100
AcDbBlockEnd
  0
BLOCK
  5
11E
330
11D
100
AcDbEntity
  8
0
100
AcDbBlockBegin
  2
*D0
 70
     0
 10
0.0
 20
0.0
 30
0.0
  3
*D0
  1

  0
LINE
  5
11F
330
11D
100
AcDbEntity
  8
WARNER
  6
SOLID
 62
     7
100
AcDbLine
 10
-497.8111572269999
 20
-5.642578125
 30
0.0
 11
-497.8111572269999
 21
60.37890625
 31
0.0
  0
LINE
  5
120
330
11D
100
AcDbEntity
  8
WARNER
  6
SOLID
 62
     7
100
AcDbLine
 10
-407.811157227
 20
-5.642578125
 30
0.0
 11
-407.811157227
 21
60.37890625
 31
0.0
  0
LINE
  5
121
330
11D
100
AcDbEntity
  8
WARNER
  6
SOLID
 62
     7
100
AcDbLine
 10
-497.8111572269999
 20
58.87890625
 30
0.0
 11
-542.8111572269999
 21
58.87890625
 31
0.0
  0
LINE
  5
122
330
11D
100
AcDbEntity
  8
WARNER
  6
SOLID
 62
     7
100
AcDbLine
 10
-542.8111572269999
 20
58.87890625
 30
0.0
 11
-362.811157227
 21
58.87890625
 31
0.0
  0
LINE
  5
123
330
11D
100
AcDbEntity
  8
WARNER
  6
SOLID
 62
     7
100
AcDbLine
 10
-527.8111572269999
 20
53.879405975
 30
0.0
 11
-497.8111572269999
 21
58.87890625
 31
0.0
  0
LINE
  5
124
330
11D
100
AcDbEntity
  8
WARNER
  6
SOLID
 62
     7
100
AcDbLine
 10
-497.8111572269999
 20
58.87890625
 30
0.0
 11
-527.8111572269999
 21
63.878406525
 31
0.0
  0
LINE
  5
125
330
11D
100
AcDbEntity
  8
WARNER
  6
SOLID
 62
     7
100
AcDbLine
 10
-527.8111572269999
 20
63.878406525
 30
0.0
 11
-527.8111572269999
 21
53.879405975
 31
0.0
  0
LINE
  5
126
330
11D
100
AcDbEntity
  8
WARNER
  6
SOLID
 62
     7
100
AcDbLine
 10
-407.811157227
 20
58.87890625
 30
0.0
 11
-362.811157227
 21
58.87890625
 31
0.0
  0
LINE
  5
127
330
11D
100
AcDbEntity
  8
WARNER
  6
SOLID
 62
     7
100
AcDbLine
 10
-362.811157227
 20
58.87890625
 30
0.0
 11
-542.8111572269999
 21
58.87890625
 31
0.0
  0
LINE
  5
128
330
11D
100
AcDbEntity
  8
WARNER
  6
SOLID
 62
     7
100
AcDbLine
 10
-377.811157227
 20
63.878406525
 30
0.0
 11
-407.811157227
 21
58.87890625
 31
0.0
  0
LINE
  5
129
330
11D
100
AcDbEntity
  8
WARNER
  6
SOLID
 62
     7
100
AcDbLine
 10
-407.811157227
 20
58.87890625
 30
0.0
 11
-377.811157227
 21
53.879405975
 31
0.0
  0
LINE
  5
12A
330
11D
100
AcDbEntity
  8
WARNER
  6
SOLID
 62
     7
100
AcDbLine
 10
-377.811157227
 20
53.879405975
 30
0.0
 11
-377.811157227
 21
63.878406525
 31
0.0
  0
TEXT
  5
12B
330
11D
100
AcDbEntity
  8
WARNER
  6
SOLID
 62
     7
100
AcDbText
 10
-474.8080749509999
 20
73.87890625
 30
0.0
 40
30.0
  1
90
 41
0.9776410420666657
 72
     5
 11
-430.814228058
 21
73.87890625
 31
0.0
100
AcDbText
  0
ENDBLK
  5
12C
330
11D
100
AcDbEntity
  8
0
100
AcDbBlockEnd
  0
BLOCK
  5
130
330
12F
100
AcDbEntity
  8
0
100
AcDbBlockBegin
  2
*D1
 70
     0
 10
0.0
 20
0.0
 30
0.0
  3
*D1
  1

  0
LINE
  5
131
330
12F
100
AcDbEntity
  8
WARNER
  6
SOLID
 62
     7
100
AcDbLine
 10
-925.8096313480001
 20
-194.83996582
 30
0.0
 11
-925.8096313480001
 21
-579.4219970699999
 31
0.0
  0
LINE
  5
132
330
12F
100
AcDbEntity
  8
WARNER
  6
SOLID
 62
     7
100
AcDbLine
 10
-637.809570313
 20
-517.8070678709999
 30
0.0
 11
-637.809570313
 21
-579.4219970699999
 31
0.0
  0
LINE
  5
133
330
12F
100
AcDbEntity
  8
WARNER
  6
SOLID
 62
     7
100
AcDbLine
 10
-925.8096313480001
 20
-574.4219970699999
 30
0.0
 11
-637.809570313
 21
-574.4219970699999
 31
0.0
  0
LINE
  5
134
330
12F
100
AcDbEntity
  8
WARNER
  6
SOLID
 62
     7
100
AcDbLine
 10
-895.809631348
 20
-569.4224853519999
 30
0.0
 11
-925.8096313480001
 21
-574.4219970699999
 31
0.0
  0
LINE
  5
135
330
12F
100
AcDbEntity
  8
WARNER
  6
SOLID
 62
     7
100
AcDbLine
 10
-925.8096313480001
 20
-574.4219970699999
 30
0.0
 11
-895.809631348
 21
-579.4215087889999
 31
0.0
  0
LINE
  5
136
330
12F
100
AcDbEntity
  8
WARNER
  6
SOLID
 62
     7
100
AcDbLine
 10
-895.809631348
 20
-579.4215087889999
 30
0.0
 11
-895.809631348
 21
-569.4224853519999
 31
0.0
  0
LINE
  5
137
330
12F
100
AcDbEntity
  8
WARNER
  6
SOLID
 62
     7
100
AcDbLine
 10
-637.809570313
 20
-574.4219970699999
 30
0.0
 11
-925.8096313480001
 21
-574.4219970699999
 31
0.0
  0
LINE
  5
138
330
12F
100
AcDbEntity
  8
WARNER
  6
SOLID
 62
     7
100
AcDbLine
 10
-667.809570313
 20
-579.4215087889999
 30
0.0
 11
-637.809570313
 21
-574.4219970699999
 31
0.0
  0
LINE
  5
139
330
12F
100
AcDbEntity
  8
WARNER
  6
SOLID
 62
     7
100
AcDbLine
 10
-637.809570313
 20
-574.4219970699999
 30
0.0
 11
-667.809570313
 21
-569.4224853519999
 31
0.0
  0
LINE
  5
13A
330
12F
100
AcDbEntity
  8
WARNER
  6
SOLID
 62
     7
100
AcDbLine
 10
-667.809570313
 20
-569.4224853519999
 30
0.0
 11
-667.809570313
 21
-579.4215087889999
 31
0.0
  0
TEXT
  5
13B
330
12F
100
AcDbEntity
  8
WARNER
  6
SOLID
 62
     7
100
AcDbText
 10
-817.0549316409999
 20
-559.42199707
 30
0.0
 40
30.0
  1
290
 41
0.9398769124399995
 72
     5
 11
-746.564163208
 21
-559.42199707
 31
0.0
100
AcDbText
  0
ENDBLK
  5
13C
330
12F
100
AcDbEntity
  8
0
100
AcDbBlockEnd
  0
BLOCK
  5
140
330
13F
100
AcDbEntity
  8
0
100
AcDbBlockBegin
  2
*D2
 70
     0
 10
0.0
 20
0.0
 30
0.0
  3
*D2
  1

  0
LINE
  5
141
330
13F
100
AcDbEntity
  8
WARNER
  6
SOLID
 62
     7
100
AcDbLine
 10
-406.3111572269999
 20
-367.1416015630001
 30
0.0
 11
-322.361938477
 21
-367.1416015630001
 31
0.0
  0
LINE
  5
142
330
13F
100
AcDbEntity
  8
WARNER
  6
SOLID
 62
     7
100
AcDbLine
 10
-406.3111572269999
 20
-7.141601562999999
 30
0.0
 11
-322.361938477
 21
-7.141601562999999
 31
0.0
  0
LINE
  5
143
330
13F
100
AcDbEntity
  8
WARNER
  6
SOLID
 62
     7
100
AcDbLine
 10
-323.861938477
 20
-367.1416015630001
 30
0.0
 11
-323.861938477
 21
-7.141601562999999
 31
0.0
  0
LINE
  5
144
330
13F
100
AcDbEntity
  8
WARNER
  6
SOLID
 62
     7
100
AcDbLine
 10
-328.861450195
 20
-337.141601563
 30
0.0
 11
-323.861938477
 21
-367.1416015630001
 31
0.0
  0
LINE
  5
145
330
13F
100
AcDbEntity
  8
WARNER
  6
SOLID
 62
     7
100
AcDbLine
 10
-323.861938477
 20
-367.1416015630001
 30
0.0
 11
-318.862426758
 21
-337.141601563
 31
0.0
  0
LINE
  5
146
330
13F
100
AcDbEntity
  8
WARNER
  6
SOLID
 62
     7
100
AcDbLine
 10
-318.862426758
 20
-337.141601563
 30
0.0
 11
-328.861450195
 21
-337.141601563
 31
0.0
  0
LINE
  5
147
330
13F
100
AcDbEntity
  8
WARNER
  6
SOLID
 62
     7
100
AcDbLine
 10
-323.861938477
 20
-7.141601562999999
 30
0.0
 11
-323.861938477
 21
-367.1416015630001
 31
0.0
  0
LINE
  5
148
330
13F
100
AcDbEntity
  8
WARNER
  6
SOLID
 62
     7
100
AcDbLine
 10
-318.862426758
 20
-37.141601563
 30
0.0
 11
-323.861938477
 21
-7.141601562999999
 31
0.0
  0
LINE
  5
149
330
13F
100
AcDbEntity
  8
WARNER
  6
SOLID
 62
     7
100
AcDbLine
 10
-323.861938477
 20
-7.141601562999999
 30
0.0
 11
-328.861450195
 21
-37.141601563
 31
0.0
  0
LINE
  5
14A
330
13F
100
AcDbEntity
  8
WARNER
  6
SOLID
 62
     7
100
AcDbLine
 10
-328.861450195
 20
-37.141601563
 30
0.0
 11
-318.862426758
 21
-37.141601563
 31
0.0
  0
TEXT
  5
14B
330
13F
100
AcDbEntity
  8
WARNER
  6
SOLID
 62
     7
100
AcDbText
 10
-338.861938477
 20
-328.380828857
 30
0.0
 40
30.0
  1
%%c
 50
90.00000250401816
 41
0.9999230384500018
 72
     5
 11
-338.861939351
 21
-308.382368088
 31
0.0
100
AcDbText
  0
TEXT
  5
14C
330
13F
100
AcDbEntity
  8
WARNER
  6
SOLID
 62
     7
100
AcDbText
 10
-338.861938477
 20
-292.880828857
 30
0.0
 40
30.0
  1
320
 50
90.00000250427536
 41
0.9398769124266671
 72
     5
 11
-338.861941558
 21
-222.390060425
 31
0.0
100
AcDbText
  0
TEXT
  5
14D
330
13F
100
AcDbEntity
  8
WARNER
  6
SOLID
 62
     7
100
AcDbText
 10
-338.861938477
 20
-213.380859375
 30
0.0
 40
30.0
  1
-700max
 50
90.00000250443964
 41
0.9288339715263166
 72
     5
 11
-338.861946191
 21
-36.902404785
 31
0.0
100
AcDbText
  0
ENDBLK
  5
14E
330
13F
100
AcDbEntity
  8
0
100
AcDbBlockEnd
  0
BLOCK
  5
18C
330
18B
100
AcDbEntity
  8
0
100
AcDbBlockBegin
  2
*D3
 70
     0
 10
0.0
 20
0.0
 30
0.0
  3
*D3
  1

  0
LINE
  5
18D
330
18B
100
AcDbEntity
  8
WARNER
  6
SOLID
 62
     7
100
AcDbLine
 10
-751.809570313
 20
-352.1416015630001
 30
0.0
 11
-751.809570313
 21
-499.4218749999999
 31
0.0
  0
LINE
  5
18E
330
18B
100
AcDbEntity
  8
WARNER
  6
SOLID
 62
     7
100
AcDbLine
 10
-751.809570313
 20
-494.421875
 30
0.0
 11
-523.8095703129999
 21
-494.421875
 31
0.0
  0
LINE
  5
18F
330
18B
100
AcDbEntity
  8
WARNER
  6
SOLID
 62
     7
100
AcDbLine
 10
-721.809570313
 20
-489.422363281
 30
0.0
 11
-751.809570313
 21
-494.421875
 31
0.0
  0
LINE
  5
190
330
18B
100
AcDbEntity
  8
WARNER
  6
SOLID
 62
     7
100
AcDbLine
 10
-751.809570313
 20
-494.421875
 30
0.0
 11
-721.809570313
 21
-499.421386719
 31
0.0
  0
LINE
  5
191
330
18B
100
AcDbEntity
  8
WARNER
  6
SOLID
 62
     7
100
AcDbLine
 10
-721.809570313
 20
-499.421386719
 30
0.0
 11
-721.809570313
 21
-489.422363281
 31
0.0
  0
LINE
  5
192
330
18B
100
AcDbEntity
  8
WARNER
  6
SOLID
 62
     7
100
AcDbLine
 10
-523.8095703129999
 20
-494.421875
 30
0.0
 11
-751.809570313
 21
-494.421875
 31
0.0
  0
TEXT
  5
193
330
18B
100
AcDbEntity
  8
WARNER
  6
SOLID
 62
     7
100
AcDbText
 10
-673.0549316409999
 20
-479.4218749999999
 30
0.0
 40
30.0
  1
230
 41
0.9398769124399979
 72
     5
 11
-602.5641632080001
 21
-479.4218749999999
 31
0.0
100
AcDbText
  0
ENDBLK
  5
194
330
18B
100
AcDbEntity
  8
0
100
AcDbBlockEnd
  0
BLOCK
  5
198
330
197
100
AcDbEntity
  8
0
100
AcDbBlockBegin
  2
*D4
 70
     0
 10
0.0
 20
0.0
 30
0.0
  3
*D4
  1

  0
LINE
  5
199
330
197
100
AcDbEntity
  8
WARNER
  6
SOLID
 62
     7
100
AcDbLine
 10
-751.809570313
 20
-352.141113281
 30
0.0
 11
-751.809570313
 21
-499.4218749999999
 31
0.0
  0
LINE
  5
19A
330
197
100
AcDbEntity
  8
WARNER
  6
SOLID
 62
     7
100
AcDbLine
 10
-523.8095703129999
 20
-282.037597656
 30
0.0
 11
-523.8095703129999
 21
-499.4218749999999
 31
0.0
  0
LINE
  5
19B
330
197
100
AcDbEntity
  8
WARNER
  6
SOLID
 62
     7
100
AcDbLine
 10
-751.809570313
 20
-494.421875
 30
0.0
 11
-523.8095703129999
 21
-494.421875
 31
0.0
  0
LINE
  5
19C
330
197
100
AcDbEntity
  8
WARNER
  6
SOLID
 62
     7
100
AcDbLine
 10
-721.809570313
 20
-489.422363281
 30
0.0
 11
-751.809570313
 21
-494.421875
 31
0.0
  0
LINE
  5
19D
330
197
100
AcDbEntity
  8
WARNER
  6
SOLID
 62
     7
100
AcDbLine
 10
-751.809570313
 20
-494.421875
 30
0.0
 11
-721.809570313
 21
-499.421386719
 31
0.0
  0
LINE
  5
19E
330
197
100
AcDbEntity
  8
WARNER
  6
SOLID
 62
     7
100
AcDbLine
 10
-721.809570313
 20
-499.421386719
 30
0.0
 11
-721.809570313
 21
-489.422363281
 31
0.0
  0
LINE
  5
19F
330
197
100
AcDbEntity
  8
WARNER
  6
SOLID
 62
     7
100
AcDbLine
 10
-523.8095703129999
 20
-494.421875
 30
0.0
 11
-751.809570313
 21
-494.421875
 31
0.0
  0
LINE
  5
1A0
330
197
100
AcDbEntity
  8
WARNER
  6
SOLID
 62
     7
100
AcDbLine
 10
-553.8095703129999
 20
-499.421386719
 30
0.0
 11
-523.8095703129999
 21
-494.421875
 31
0.0
  0
LINE
  5
1A1
330
197
100
AcDbEntity
  8
WARNER
  6
SOLID
 62
     7
100
AcDbLine
 10
-523.8095703129999
 20
-494.421875
 30
0.0
 11
-553.8095703129999
 21
-489.422363281
 31
0.0
  0
LINE
  5
1A2
330
197
100
AcDbEntity
  8
WARNER
  6
SOLID
 62
     7
100
AcDbLine
 10
-553.8095703129999
 20
-489.422363281
 30
0.0
 11
-553.8095703129999
 21
-499.421386719
 31
0.0
  0
TEXT
  5
1A3
330
197
100
AcDbEntity
  8
WARNER
  6
SOLID
 62
     7
100
AcDbText
 10
-673.0549316409999
 20
-479.4218749999999
 30
0.0
 40
30.0
  1
230
 41
0.9398769124399979
 72
     5
 11
-602.5641632080001
 21
-479.4218749999999
 31
0.0
100
AcDbText
  0
ENDBLK
  5
1A4
330
197
100
AcDbEntity
  8
0
100
AcDbBlockEnd
  0
BLOCK
  5
1A9
330
1A8
100
AcDbEntity
  8
0
100
AcDbBlockBegin
  2
*H55
 70
     0
 10
0.0
 20
0.0
 30
0.0
  3
*H55
  1

  0
LINE
  5
1AA
330
1A8
100
AcDbEntity
  8
WARNER
  6
SOLID
 62
     7
100
AcDbLine
 10
-637.3623046879999
 20
-497.6171875
 30
0.0
 11
-634.4248046879999
 21
-494.6796875
 31
0.0
  0
LINE
  5
1AB
330
1A8
100
AcDbEntity
  8
WARNER
  6
SOLID
 62
     7
100
AcDbLine
 10
-634.7285156249999
 20
-492.862304688
 30
0.0
 11
-639.208007813
 21
-497.3417968749999
 31
0.0
  0
LINE
  5
1AC
330
1A8
100
AcDbEntity
  8
WARNER
  6
SOLID
 62
     7
100
AcDbLine
 10
-640.4228515629999
 20
-496.435058594
 30
0.0
 11
-635.6787109379999
 21
-491.69140625
 31
0.0
  0
LINE
  5
1AD
330
1A8
100
AcDbEntity
  8
WARNER
  6
SOLID
 62
     7
100
AcDbLine
 10
-637.1064453129999
 20
-490.997070313
 30
0.0
 11
-641.16796875
 21
-495.059082031
 31
0.0
  0
LINE
  5
1AE
330
1A8
100
AcDbEntity
  8
WARNER
  6
SOLID
 62
     7
100
AcDbLine
 10
-640.510742188
 20
-492.28125
 30
0.0
 11
-639.6826171879999
 21
-491.452148438
 31
0.0
  0
ENDBLK
  5
1AF
330
1A8
100
AcDbEntity
  8
0
100
AcDbBlockEnd
  0
BLOCK
  5
1C3
330
1C2
100
AcDbEntity
  8
0
100
AcDbBlockBegin
  2
*H66
 70
     0
 10
0.0
 20
0.0
 30
0.0
  3
*H66
  1

  0
LINE
  5
1C4
330
1C2
100
AcDbEntity
  8
WARNER
  6
SOLID
 62
     7
100
AcDbLine
 10
-637.3623046879999
 20
-417.6171874999999
 30
0.0
 11
-634.4248046879999
 21
-414.6796874999999
 31
0.0
  0
LINE
  5
1C5
330
1C2
100
AcDbEntity
  8
WARNER
  6
SOLID
 62
     7
100
AcDbLine
 10
-634.7285156249999
 20
-412.862304688
 30
0.0
 11
-639.208007813
 21
-417.3417968749999
 31
0.0
  0
LINE
  5
1C6
330
1C2
100
AcDbEntity
  8
WARNER
  6
SOLID
 62
     7
100
AcDbLine
 10
-640.4228515629999
 20
-416.435058594
 30
0.0
 11
-635.6787109379999
 21
-411.69140625
 31
0.0
  0
LINE
  5
1C7
330
1C2
100
AcDbEntity
  8
WARNER
  6
SOLID
 62
     7
100
AcDbLine
 10
-637.1064453129999
 20
-410.9970703130001
 30
0.0
 11
-641.16796875
 21
-415.0590820309999
 31
0.0
  0
LINE
  5
1C8
330
1C2
100
AcDbEntity
  8
WARNER
  6
SOLID
 62
     7
100
AcDbLine
 10
-640.510742188
 20
-412.28125
 30
0.0
 11
-639.6826171879999
 21
-411.452148438
 31
0.0
  0
ENDBLK
  5
1C9
330
1C2
100
AcDbEntity
  8
0
100
AcDbBlockEnd
  0
BLOCK
  5
1CC
330
1CB
100
AcDbEntity
  8
0
100
AcDbBlockBegin
  2
*D7
 70
     0
 10
0.0
 20
0.0
 30
0.0
  3
*D7
  1

  0
LINE
  5
1CD
330
1CB
100
AcDbEntity
  8
WARNER
  6
SOLID
 62
     7
100
AcDbLine
 10
-712.809570313
 20
-387.1171875
 30
0.0
 11
-712.809570313
 21
-274.841308594
 31
0.0
  0
LINE
  5
1CE
330
1CB
100
AcDbEntity
  8
WARNER
  6
SOLID
 62
     7
100
AcDbLine
 10
-562.8095703129999
 20
-387.1171875
 30
0.0
 11
-562.8095703129999
 21
-274.841308594
 31
0.0
  0
LINE
  5
1CF
330
1CB
100
AcDbEntity
  8
WARNER
  6
SOLID
 62
     7
100
AcDbLine
 10
-712.809570313
 20
-279.841308594
 30
0.0
 11
-562.8095703129999
 21
-279.841308594
 31
0.0
  0
LINE
  5
1D0
330
1CB
100
AcDbEntity
  8
WARNER
  6
SOLID
 62
     7
100
AcDbLine
 10
-682.8095703129999
 20
-274.841796875
 30
0.0
 11
-712.809570313
 21
-279.841308594
 31
0.0
  0
LINE
  5
1D1
330
1CB
100
AcDbEntity
  8
WARNER
  6
SOLID
 62
     7
100
AcDbLine
 10
-712.809570313
 20
-279.841308594
 30
0.0
 11
-682.8095703129999
 21
-284.840820313
 31
0.0
  0
LINE
  5
1D2
330
1CB
100
AcDbEntity
  8
WARNER
  6
SOLID
 62
     7
100
AcDbLine
 10
-682.8095703129999
 20
-284.840820313
 30
0.0
 11
-682.8095703129999
 21
-274.841796875
 31
0.0
  0
LINE
  5
1D3
330
1CB
100
AcDbEntity
  8
WARNER
  6
SOLID
 62
     7
100
AcDbLine
 10
-562.8095703129999
 20
-279.841308594
 30
0.0
 11
-712.809570313
 21
-279.841308594
 31
0.0
  0
LINE
  5
1D4
330
1CB
100
AcDbEntity
  8
WARNER
  6
SOLID
 62
     7
100
AcDbLine
 10
-592.809570313
 20
-284.840820313
 30
0.0
 11
-562.8095703129999
 21
-279.841308594
 31
0.0
  0
LINE
  5
1D5
330
1CB
100
AcDbEntity
  8
WARNER
  6
SOLID
 62
     7
100
AcDbLine
 10
-562.8095703129999
 20
-279.841308594
 30
0.0
 11
-592.809570313
 21
-274.841796875
 31
0.0
  0
LINE
  5
1D6
330
1CB
100
AcDbEntity
  8
WARNER
  6
SOLID
 62
     7
100
AcDbLine
 10
-592.809570313
 20
-274.841796875
 30
0.0
 11
-592.809570313
 21
-284.840820313
 31
0.0
  0
TEXT
  5
1D7
330
1CB
100
AcDbEntity
  8
WARNER
  6
SOLID
 62
     7
100
AcDbText
 10
-673.0549316409999
 20
-264.841308594
 30
0.0
 40
30.0
  1
150
 41
1.08447336050769
 72
     5
 11
-602.5641632080001
 21
-264.841308594
 31
0.0
100
AcDbText
  0
ENDBLK
  5
1D8
330
1CB
100
AcDbEntity
  8
0
100
AcDbBlockEnd
  0
BLOCK
  5
1DC
330
1DB
100
AcDbEntity
  8
0
100
AcDbBlockBegin
  2
*D8
 70
     0
 10
0.0
 20
0.0
 30
0.0
  3
*D8
  1

  0
LINE
  5
1DD
330
1DB
100
AcDbEntity
  8
WARNER
  6
SOLID
 62
     7
100
AcDbLine
 10
-542.809570313
 20
-352.1416015630001
 30
0.0
 11
-542.809570313
 21
-419.421875
 31
0.0
  0
LINE
  5
1DE
330
1DB
100
AcDbEntity
  8
WARNER
  6
SOLID
 62
     7
100
AcDbLine
 10
-721.309570313
 20
-414.421875
 30
0.0
 11
-542.809570313
 21
-414.421875
 31
0.0
  0
LINE
  5
1DF
330
1DB
100
AcDbEntity
  8
WARNER
  6
SOLID
 62
     7
100
AcDbLine
 10
-542.809570313
 20
-414.421875
 30
0.0
 11
-721.309570313
 21
-414.421875
 31
0.0
  0
LINE
  5
1E0
330
1DB
100
AcDbEntity
  8
WARNER
  6
SOLID
 62
     7
100
AcDbLine
 10
-572.809570313
 20
-419.421386719
 30
0.0
 11
-542.809570313
 21
-414.421875
 31
0.0
  0
LINE
  5
1E1
330
1DB
100
AcDbEntity
  8
WARNER
  6
SOLID
 62
     7
100
AcDbLine
 10
-542.809570313
 20
-414.421875
 30
0.0
 11
-572.809570313
 21
-409.422363281
 31
0.0
  0
LINE
  5
1E2
330
1DB
100
AcDbEntity
  8
WARNER
  6
SOLID
 62
     7
100
AcDbLine
 10
-572.809570313
 20
-409.422363281
 30
0.0
 11
-572.809570313
 21
-419.421386719
 31
0.0
  0
TEXT
  5
1E3
330
1DB
100
AcDbEntity
  8
WARNER
  6
SOLID
 62
     7
100
AcDbText
 10
-667.3049316409999
 20
-399.421875
 30
0.0
 40
30.0
  1
190
 41
1.08447336050769
 72
     5
 11
-596.814163208
 21
-399.421875
 31
0.0
100
AcDbText
  0
ENDBLK
  5
1E4
330
1DB
100
AcDbEntity
  8
0
100
AcDbBlockEnd
  0
BLOCK
  5
21A
330
219
100
AcDbEntity
  8
0
100
AcDbBlockBegin
  2
*D9
 70
     0
 10
0.0
 20
0.0
 30
0.0
  3
*D9
  1

  0
LINE
  5
21B
330
219
100
AcDbEntity
  8
WARNER
  6
SOLID
 62
     7
100
AcDbLine
 10
-637.809570313
 20
-518.5321044919999
 30
0.0
 11
-637.809570313
 21
-579.4218749999999
 31
0.0
  0
LINE
  5
21C
330
219
100
AcDbEntity
  8
WARNER
  6
SOLID
 62
     7
100
AcDbLine
 10
-452.8099670409999
 20
-382.1534729
 30
0.0
 11
-452.8099670409999
 21
-579.4218749999999
 31
0.0
  0
LINE
  5
21D
330
219
100
AcDbEntity
  8
WARNER
  6
SOLID
 62
     7
100
AcDbLine
 10
-637.809570313
 20
-574.4218749999999
 30
0.0
 11
-452.8099670409999
 21
-574.4218749999999
 31
0.0
  0
LINE
  5
21E
330
219
100
AcDbEntity
  8
WARNER
  6
SOLID
 62
     7
100
AcDbLine
 10
-607.8095703129999
 20
-569.4223632809999
 30
0.0
 11
-637.809570313
 21
-574.4218749999999
 31
0.0
  0
LINE
  5
21F
330
219
100
AcDbEntity
  8
WARNER
  6
SOLID
 62
     7
100
AcDbLine
 10
-637.809570313
 20
-574.4218749999999
 30
0.0
 11
-607.8095703129999
 21
-579.4213867189999
 31
0.0
  0
LINE
  5
220
330
219
100
AcDbEntity
  8
WARNER
  6
SOLID
 62
     7
100
AcDbLine
 10
-607.8095703129999
 20
-579.4213867189999
 30
0.0
 11
-607.8095703129999
 21
-569.4223632809999
 31
0.0
  0
LINE
  5
221
330
219
100
AcDbEntity
  8
WARNER
  6
SOLID
 62
     7
100
AcDbLine
 10
-452.8099670409999
 20
-574.4218749999999
 30
0.0
 11
-637.809570313
 21
-574.4218749999999
 31
0.0
  0
LINE
  5
222
330
219
100
AcDbEntity
  8
WARNER
  6
SOLID
 62
     7
100
AcDbLine
 10
-482.809967041
 20
-579.4213867189999
 30
0.0
 11
-452.8099670409999
 21
-574.4218749999999
 31
0.0
  0
LINE
  5
223
330
219
100
AcDbEntity
  8
WARNER
  6
SOLID
 62
     7
100
AcDbLine
 10
-452.8099670409999
 20
-574.4218749999999
 30
0.0
 11
-482.809967041
 21
-569.4223632809999
 31
0.0
  0
LINE
  5
224
330
219
100
AcDbEntity
  8
WARNER
  6
SOLID
 62
     7
100
AcDbLine
 10
-482.809967041
 20
-569.4223632809999
 30
0.0
 11
-482.809967041
 21
-579.4213867189999
 31
0.0
  0
TEXT
  5
225
330
219
100
AcDbEntity
  8
WARNER
  6
SOLID
 62
     7
100
AcDbText
 10
-580.555114746
 20
-559.421875
 30
0.0
 40
30.0
  1
185
 41
1.007010977614284
 72
     5
 11
-510.064346313
 21
-559.421875
 31
0.0
100
AcDbText
  0
ENDBLK
  5
226
330
219
100
AcDbEntity
  8
0
100
AcDbBlockEnd
  0
BLOCK
  5
22B
330
22A
100
AcDbEntity
  8
0
100
AcDbBlockBegin
  2
*D10
 70
     0
 10
0.0
 20
0.0
 30
0.0
  3
*D10
  1

  0
LINE
  5
22C
330
22A
100
AcDbEntity
  8
WARNER
  6
SOLID
 62
     7
100
AcDbLine
 10
-812.810180664
 20
501.732910156
 30
0.0
 11
-812.810180664
 21
604.916015625
 31
0.0
  0
LINE
  5
22D
330
22A
100
AcDbEntity
  8
WARNER
  6
SOLID
 62
     7
100
AcDbLine
 10
-462.810180664
 20
501.732910156
 30
0.0
 11
-462.810180664
 21
604.916015625
 31
0.0
  0
LINE
  5
22E
330
22A
100
AcDbEntity
  8
WARNER
  6
SOLID
 62
     7
100
AcDbLine
 10
-812.810180664
 20
603.916015625
 30
0.0
 11
-462.810180664
 21
603.916015625
 31
0.0
  0
LINE
  5
22F
330
22A
100
AcDbEntity
  8
WARNER
  6
SOLID
 62
     7
100
AcDbLine
 10
-782.810180664
 20
608.915527344
 30
0.0
 11
-812.810180664
 21
603.916015625
 31
0.0
  0
LINE
  5
230
330
22A
100
AcDbEntity
  8
WARNER
  6
SOLID
 62
     7
100
AcDbLine
 10
-812.810180664
 20
603.916015625
 30
0.0
 11
-782.810180664
 21
598.916503906
 31
0.0
  0
LINE
  5
231
330
22A
100
AcDbEntity
  8
WARNER
  6
SOLID
 62
     7
100
AcDbLine
 10
-782.810180664
 20
598.916503906
 30
0.0
 11
-782.810180664
 21
608.915527344
 31
0.0
  0
LINE
  5
232
330
22A
100
AcDbEntity
  8
WARNER
  6
SOLID
 62
     7
100
AcDbLine
 10
-462.810180664
 20
603.916015625
 30
0.0
 11
-812.810180664
 21
603.916015625
 31
0.0
  0
LINE
  5
233
330
22A
100
AcDbEntity
  8
WARNER
  6
SOLID
 62
     7
100
AcDbLine
 10
-492.8101806639999
 20
598.916503906
 30
0.0
 11
-462.810180664
 21
603.916015625
 31
0.0
  0
LINE
  5
234
330
22A
100
AcDbEntity
  8
WARNER
  6
SOLID
 62
     7
100
AcDbLine
 10
-462.810180664
 20
603.916015625
 30
0.0
 11
-492.8101806639999
 21
608.915527344
 31
0.0
  0
LINE
  5
235
330
22A
100
AcDbEntity
  8
WARNER
  6
SOLID
 62
     7
100
AcDbLine
 10
-492.8101806639999
 20
608.915527344
 30
0.0
 11
-492.8101806639999
 21
598.916503906
 31
0.0
  0
TEXT
  5
236
330
22A
100
AcDbEntity
  8
WARNER
  6
SOLID
 62
     7
100
AcDbText
 10
-684.0516357419999
 20
618.9160156249999
 30
0.0
 40
30.0
  1
%%c
 41
0.9999230384499924
 72
     5
 11
-664.053174973
 21
618.9160156249999
 31
0.0
100
AcDbText
  0
TEXT
  5
237
330
22A
100
AcDbEntity
  8
WARNER
  6
SOLID
 62
     7
100
AcDbText
 10
-648.5516357419998
 20
618.9160156249999
 30
0.0
 40
30.0
  1
350
 41
0.939876912426665
 72
     5
 11
-578.06086731
 21
618.9160156249999
 31
0.0
100
AcDbText
  0
ENDBLK
  5
238
330
22A
100
AcDbEntity
  8
0
100
AcDbBlockEnd
  0
BLOCK
  5
247
330
246
100
AcDbEntity
  8
0
100
AcDbBlockBegin
  2
*H1111
 70
     0
 10
0.0
 20
0.0
 30
0.0
  3
*H1111
  1

  0
LINE
  5
248
330
246
100
AcDbEntity
  8
WARNER
  6
SOLID
 62
     7
100
AcDbLine
 10
-637.3613281249999
 20
-283.168457031
 30
0.0
 11
-634.423828125
 21
-280.229980469
 31
0.0
  0
LINE
  5
249
330
246
100
AcDbEntity
  8
WARNER
  6
SOLID
 62
     7
100
AcDbLine
 10
-634.727539063
 20
-278.412597656
 30
0.0
 11
-639.208007813
 21
-282.893066406
 31
0.0
  0
LINE
  5
24A
330
246
100
AcDbEntity
  8
WARNER
  6
SOLID
 62
     7
100
AcDbLine
 10
-640.421875
 20
-281.985839844
 30
0.0
 11
-635.6787109379999
 21
-277.242675781
 31
0.0
  0
LINE
  5
24B
330
246
100
AcDbEntity
  8
WARNER
  6
SOLID
 62
     7
100
AcDbLine
 10
-637.10546875
 20
-276.547363281
 30
0.0
 11
-641.1669921879999
 21
-280.609863281
 31
0.0
  0
LINE
  5
24C
330
246
100
AcDbEntity
  8
WARNER
  6
SOLID
 62
     7
100
AcDbLine
 10
-640.510742188
 20
-277.832519531
 30
0.0
 11
-639.681640625
 21
-277.002441406
 31
0.0
  0
ENDBLK
  5
24D
330
246
100
AcDbEntity
  8
0
100
AcDbBlockEnd
  0
BLOCK
  5
2A6
330
2A5
100
AcDbEntity
  8
0
100
AcDbBlockBegin
  2
*D12
 70
     0
 10
0.0
 20
0.0
 30
0.0
  3
*D12
  1

  0
LINE
  5
2A7
330
2A5
100
AcDbEntity
  8
WARNER
  6
SOLID
 62
     7
100
AcDbLine
 10
-925.8096313480001
 20
-194.83996582
 30
0.0
 11
-925.8096313480001
 21
-654.6853637699999
 31
0.0
  0
LINE
  5
2A8
330
2A5
100
AcDbEntity
  8
WARNER
  6
SOLID
 62
     7
100
AcDbLine
 10
-407.809631348
 20
-372.1418457030001
 30
0.0
 11
-407.809631348
 21
-654.6853637699999
 31
0.0
  0
LINE
  5
2A9
330
2A5
100
AcDbEntity
  8
WARNER
  6
SOLID
 62
     7
100
AcDbLine
 10
-925.8096313480001
 20
-649.68536377
 30
0.0
 11
-407.809631348
 21
-649.68536377
 31
0.0
  0
LINE
  5
2AA
330
2A5
100
AcDbEntity
  8
WARNER
  6
SOLID
 62
     7
100
AcDbLine
 10
-895.809631348
 20
-644.685852051
 30
0.0
 11
-925.8096313480001
 21
-649.68536377
 31
0.0
  0
LINE
  5
2AB
330
2A5
100
AcDbEntity
  8
WARNER
  6
SOLID
 62
     7
100
AcDbLine
 10
-925.8096313480001
 20
-649.68536377
 30
0.0
 11
-895.809631348
 21
-654.684875488
 31
0.0
  0
LINE
  5
2AC
330
2A5
100
AcDbEntity
  8
WARNER
  6
SOLID
 62
     7
100
AcDbLine
 10
-895.809631348
 20
-654.684875488
 30
0.0
 11
-895.809631348
 21
-644.685852051
 31
0.0
  0
LINE
  5
2AD
330
2A5
100
AcDbEntity
  8
WARNER
  6
SOLID
 62
     7
100
AcDbLine
 10
-407.809631348
 20
-649.68536377
 30
0.0
 11
-925.8096313480001
 21
-649.68536377
 31
0.0
  0
LINE
  5
2AE
330
2A5
100
AcDbEntity
  8
WARNER
  6
SOLID
 62
     7
100
AcDbLine
 10
-437.809631348
 20
-654.684875488
 30
0.0
 11
-407.809631348
 21
-649.68536377
 31
0.0
  0
LINE
  5
2AF
330
2A5
100
AcDbEntity
  8
WARNER
  6
SOLID
 62
     7
100
AcDbLine
 10
-407.809631348
 20
-649.68536377
 30
0.0
 11
-437.809631348
 21
-644.685852051
 31
0.0
  0
LINE
  5
2B0
330
2A5
100
AcDbEntity
  8
WARNER
  6
SOLID
 62
     7
100
AcDbLine
 10
-437.809631348
 20
-644.685852051
 30
0.0
 11
-437.809631348
 21
-654.684875488
 31
0.0
  0
TEXT
  5
2B1
330
2A5
100
AcDbEntity
  8
WARNER
  6
SOLID
 62
     7
100
AcDbText
 10
-702.0549926760001
 20
-634.6853637699999
 30
0.0
 40
30.0
  1
520
 41
0.9398769124400011
 72
     5
 11
-631.564224243
 21
-634.6853637699999
 31
0.0
100
AcDbText
  0
ENDBLK
  5
2B2
330
2A5
100
AcDbEntity
  8
0
100
AcDbBlockEnd
  0
BLOCK
  5
2BE
330
2BD
100
AcDbEntity
  8
0
100
AcDbBlockBegin
  2
*D13
 70
     0
 10
0.0
 20
0.0
 30
0.0
  3
*D13
  1

  0
LINE
  5
2BF
330
2BD
100
AcDbEntity
  8
WARNER
  6
SOLID
 62
     7
100
AcDbLine
 10
-912.2777099610001
 20
-322.141845703
 30
0.0
 11
-989.94744873
 21
-322.141845703
 31
0.0
  0
LINE
  5
2C0
330
2BD
100
AcDbEntity
  8
WARNER
  6
SOLID
 62
     7
100
AcDbLine
 10
-912.2776489260001
 20
-52.141876221
 30
0.0
 11
-989.94744873
 21
-52.141876221
 31
0.0
  0
LINE
  5
2C1
330
2BD
100
AcDbEntity
  8
WARNER
  6
SOLID
 62
     7
100
AcDbLine
 10
-984.94744873
 20
-322.141845703
 30
0.0
 11
-984.94744873
 21
-52.141876221
 31
0.0
  0
LINE
  5
2C2
330
2BD
100
AcDbEntity
  8
WARNER
  6
SOLID
 62
     7
100
AcDbLine
 10
-989.9469604489999
 20
-292.141845703
 30
0.0
 11
-984.94744873
 21
-322.141845703
 31
0.0
  0
LINE
  5
2C3
330
2BD
100
AcDbEntity
  8
WARNER
  6
SOLID
 62
     7
100
AcDbLine
 10
-984.94744873
 20
-322.141845703
 30
0.0
 11
-979.947937012
 21
-292.141845703
 31
0.0
  0
LINE
  5
2C4
330
2BD
100
AcDbEntity
  8
WARNER
  6
SOLID
 62
     7
100
AcDbLine
 10
-979.947937012
 20
-292.141845703
 30
0.0
 11
-989.9469604489999
 21
-292.141845703
 31
0.0
  0
LINE
  5
2C5
330
2BD
100
AcDbEntity
  8
WARNER
  6
SOLID
 62
     7
100
AcDbLine
 10
-984.94744873
 20
-52.141876221
 30
0.0
 11
-984.94744873
 21
-322.141845703
 31
0.0
  0
LINE
  5
2C6
330
2BD
100
AcDbEntity
  8
WARNER
  6
SOLID
 62
     7
100
AcDbLine
 10
-979.947937012
 20
-82.141876221
 30
0.0
 11
-984.94744873
 21
-52.141876221
 31
0.0
  0
LINE
  5
2C7
330
2BD
100
AcDbEntity
  8
WARNER
  6
SOLID
 62
     7
100
AcDbLine
 10
-984.94744873
 20
-52.141876221
 30
0.0
 11
-989.9469604489999
 21
-82.141876221
 31
0.0
  0
LINE
  5
2C8
330
2BD
100
AcDbEntity
  8
WARNER
  6
SOLID
 62
     7
100
AcDbLine
 10
-989.9469604489999
 20
-82.141876221
 30
0.0
 11
-979.947937012
 21
-82.141876221
 31
0.0
  0
TEXT
  5
2C9
330
2BD
100
AcDbEntity
  8
WARNER
  6
SOLID
 62
     7
100
AcDbText
 10
-999.94744873
 20
-235.637237549
 30
0.0
 40
30.0
  1
%%c
 50
90.00000250688314
 41
0.9999230385000013
 72
     5
 11
-999.947449605
 21
-215.638776779
 31
0.0
100
AcDbText
  0
TEXT
  5
2CA
330
2BD
100
AcDbEntity
  8
WARNER
  6
SOLID
 62
     7
100
AcDbText
 10
-999.94744873
 20
-200.137252808
 30
0.0
 40
30.0
  1
285
 50
90.00000250508813
 41
0.8811346054125008
 72
     5
 11
-999.9474518119999
 21
-129.646484375
 31
0.0
100
AcDbText
  0
ENDBLK
  5
2CB
330
2BD
100
AcDbEntity
  8
0
100
AcDbBlockEnd
  0
ENDSEC
  0
SECTION
  2
ENTITIES
  0
LWPOLYLINE
  5
56
330
A
100
AcDbEntity
  8
WARNER
  6
SOLID
 62
     7
100
AcDbPolyline
 90
        5
 70
     0
 43
0.0
 10
-492.6364537769999
 20
374.913619875
 10
-492.4789833680001
 20
373.326574881
 10
-492.3758251459999
 20
371.7129636090001
 10
-492.2597622359999
 20
368.474605087
 10
-491.947805645
 20
358.160543343
  0
LINE
  5
57
330
A
100
AcDbEntity
  8
WARNER
  6
SOLID
 62
     7
100
AcDbLine
 10
-751.809635887
 20
-43.667098782
 30
0.0
 11
-757.8099869739999
 21
-43.667098782
 31
0.0
  0
LINE
  5
58
330
A
100
AcDbEntity
  8
WARNER
  6
SOLID
 62
     7
100
AcDbLine
 10
-507.8099869739999
 20
37.597073794
 30
0.0
 11
-767.8099869739999
 21
37.597073794
 31
0.0
  0
LINE
  5
59
330
A
100
AcDbEntity
  8
WARNER
  6
SOLID
 62
     7
100
AcDbLine
 10
-507.8099869739999
 20
22.089782422
 30
0.0
 11
-767.8099869739999
 21
22.089782422
 31
0.0
  0
LINE
  5
5A
330
A
100
AcDbEntity
  8
WARNER
  6
SOLID
 62
     7
100
AcDbLine
 10
-514.010029698
 20
406.3310460169999
 30
0.0
 11
-517.0835158569999
 21
396.471748601
 31
0.0
  0
LINE
  5
5B
330
A
100
AcDbEntity
  8
WARNER
  6
SOLID
 62
     7
100
AcDbLine
 10
-701.6099442489998
 20
406.3310460169999
 30
0.0
 11
-698.5364580910001
 21
396.471748601
 31
0.0
  0
LWPOLYLINE
  5
5C
330
A
100
AcDbEntity
  8
WARNER
  6
SOLID
 62
     7
100
AcDbPolyline
 90
       29
 70
     0
 43
0.0
 10
-737.8099886039999
 20
359.5957205169999
 10
-737.7905432680001
 20
360.107573921
 10
-737.732345191
 20
360.619228596
 10
-737.6354169339999
 20
361.1304862219999
 10
-737.499796064
 20
361.641148635
 10
-737.325535149
 20
362.151017901
 10
-737.112701734
 20
362.6598963930001
 10
-736.861378313
 20
363.1675868680001
 10
-736.5716622989999
 20
363.673892544
 10
-736.243665987
 20
364.178617175
 10
-735.8775165099999
 20
364.681565129
 10
-735.4733557889999
 20
365.182541462
 10
-735.0313404760001
 20
365.681351994
 10
-734.5516418989999
 20
366.177803385
 10
-734.0344459889998
 20
366.6717032080001
 10
-733.4799532139999
 20
367.162860028
 10
-732.8883784960001
 20
367.651083469
 10
-732.259951131
 20
368.136184296
 10
-731.5949147000001
 20
368.617974481
 10
-730.893526973
 20
369.096267282
 10
-730.156059808
 20
369.570877312
 10
-729.382799051
 20
370.041620609
 10
-728.5740444199999
 20
370.508314712
 10
-727.73010939
 20
370.970778731
 10
-726.851321073
 20
371.428833411
 10
-724.990560437
 20
372.331006363
 10
-722.994647176
 20
373.213434966
 10
-720.8666754760001
 20
374.074751225
 10
-718.6099442489998
 20
374.913619875
  0
ARC
  5
5D
330
A
100
AcDbEntity
  8
WARNER
  6
SOLID
 62
     7
100
AcDbCircle
 10
-503.813203679
 20
354.656376052
 30
0.0
 40
10.0
100
AcDbArc
 50
270.0
 51
303.938232257
  0
LINE
  5
5E
330
A
100
AcDbEntity
  8
WARNER
  6
SOLID
 62
     7
100
AcDbLine
 10
-688.6099442489999
 20
374.913619875
 30
0.0
 11
-688.6099442489999
 21
405.3310460169999
 31
0.0
  0
LINE
  5
5F
330
A
100
AcDbEntity
  8
WARNER
  6
SOLID
 62
     7
100
AcDbLine
 10
-712.6099442489999
 20
397.402687939
 30
0.0
 11
-712.6099442489999
 21
394.913619875
 31
0.0
  0
ARC
  5
60
330
A
100
AcDbEntity
  8
WARNER
  6
SOLID
 62
     7
100
AcDbCircle
 10
-717.6099442489999
 20
394.913619875
 30
0.0
 40
5.0
100
AcDbArc
 50
270.0
 51
0.0
  0
LINE
  5
61
330
A
100
AcDbEntity
  8
WARNER
  6
SOLID
 62
     7
100
AcDbLine
 10
-717.6099442489999
 20
389.913619875
 30
0.0
 11
-763.6099442489999
 21
389.913619875
 31
0.0
  0
LINE
  5
62
330
A
100
AcDbEntity
  8
WARNER
  6
SOLID
 62
     7
100
AcDbLine
 10
-737.8099886589999
 20
344.656376052
 30
0.0
 11
-771.8067702689999
 21
344.656376052
 31
0.0
  0
LWPOLYLINE
  5
63
330
A
100
AcDbEntity
  8
WARNER
  6
SOLID
 62
     7
100
AcDbPolyline
 90
       53
 70
     0
 43
0.0
 10
-777.3897586119999
 20
346.359976763
 10
-778.04828254
 20
346.815774378
 10
-778.67386323
 20
347.274698248
 10
-779.2662812960001
 20
347.736587434
 10
-779.825328985
 20
348.201279956
 10
-780.3508102430001
 20
348.66861285
 10
-780.84254079
 20
349.138422229
 10
-781.30034818
 20
349.610543333
 10
-781.724071866
 20
350.084810596
 10
-782.1135632499999
 20
350.561057696
 10
-782.468685743
 20
351.039117619
 10
-782.789314807
 20
351.518822713
 10
-783.0753379999999
 20
352.00000475
 10
-783.326655017
 20
352.482494986
 10
-783.543177724
 20
352.966124215
 10
-783.7248301869999
 20
353.450722833
 10
-783.8715487039999
 20
353.936120896
 10
-783.9832818210001
 20
354.422148181
 10
-784.059990355
 20
354.9086342430001
 10
-784.1016474049999
 20
355.395408475
 10
-784.108238363
 20
355.88230017
 10
-784.079760916
 20
356.3691385809999
 10
-784.0162250519999
 20
356.855752978
 10
-783.9176530529999
 20
357.341972711
 10
-783.7840794849999
 20
357.827627267
 10
-783.615551193
 20
358.312546331
 10
-783.412127277
 20
358.796559848
 10
-783.173879076
 20
359.279498079
 10
-782.9008901419999
 20
359.761191661
 10
-782.5932562080001
 20
360.241471671
 10
-782.25108516
 20
360.720169679
 10
-781.874496992
 20
361.197117809
 10
-781.463623772
 20
361.672148801
 10
-781.018609587
 20
362.145096067
 10
-780.5396105
 20
362.615793749
 10
-780.026794491
 20
363.084076777
 10
-779.4803414
 20
363.549780929
 10
-778.900442862
 20
364.012742888
 10
-778.287302242
 20
364.472800297
 10
-777.6411345619999
 20
364.929791819
 10
-776.9621664269999
 20
365.383557191
 10
-775.5067926399999
 20
366.280774151
 10
-773.923222241
 20
367.1631927059999
 10
-772.213676407
 20
368.029575143
 10
-770.380553008
 20
368.878706242
 10
-768.4264232519999
 20
369.709394981
 10
-766.3540280749999
 20
370.5204762030001
 10
-764.1662742939999
 20
371.310812258
 10
-761.8662305329999
 20
372.07929459
 10
-759.457122921
 20
372.824845297
 10
-756.942330561
 20
373.546418642
 10
-754.325380793
 20
374.243002519
 10
-751.6099442489998
 20
374.913619875
  0
ARC
  5
64
330
A
100
AcDbEntity
  8
WARNER
  6
SOLID
 62
     7
100
AcDbCircle
 10
-771.8067702689999
 20
354.656376052
 30
0.0
 40
10.0
100
AcDbArc
 50
236.061767743
 51
270.0
  0
LINE
  5
65
330
A
100
AcDbEntity
  8
WARNER
  6
SOLID
 62
     7
100
AcDbLine
 10
-527.010029698
 20
374.913619875
 30
0.0
 11
-527.010029698
 21
405.3310460169999
 31
0.0
  0
LINE
  5
66
330
A
100
AcDbEntity
  8
WARNER
  6
SOLID
 62
     7
100
AcDbLine
 10
-527.010029698
 20
374.913619875
 30
0.0
 11
-482.010029698
 21
374.913619875
 31
0.0
  0
ARC
  5
67
330
A
100
AcDbEntity
  8
WARNER
  6
SOLID
 62
     7
100
AcDbCircle
 10
-482.010029698
 20
379.913619875
 30
0.0
 40
5.0
100
AcDbArc
 50
270.0
 51
0.0
  0
ARC
  5
68
330
A
100
AcDbEntity
  8
WARNER
  6
SOLID
 62
     7
100
AcDbCircle
 10
-487.010029698
 20
394.913619875
 30
0.0
 40
5.0
100
AcDbArc
 50
180.0
 51
270.0
  0
LINE
  5
69
330
A
100
AcDbEntity
  8
WARNER
  6
SOLID
 62
     7
100
AcDbLine
 10
-492.010029698
 20
403.21051132
 30
0.0
 11
-492.010029698
 21
394.913619875
 31
0.0
  0
ARC
  5
6A
330
A
100
AcDbEntity
  8
WARNER
  6
SOLID
 62
     7
100
AcDbCircle
 10
-498.010029698
 20
394.913619875
 30
0.0
 40
5.0
100
AcDbArc
 50
180.0
 51
270.0
  0
LINE
  5
6B
330
A
100
AcDbEntity
  8
WARNER
  6
SOLID
 62
     7
100
AcDbLine
 10
-498.010029698
 20
389.913619875
 30
0.0
 11
-482.010029698
 21
389.913619875
 31
0.0
  0
LINE
  5
6C
330
A
100
AcDbEntity
  8
WARNER
  6
SOLID
 62
     7
100
AcDbLine
 10
-514.010029698
 20
406.3310460169999
 30
0.0
 11
-499.010029698
 21
406.3310460169999
 31
0.0
  0
ARC
  5
6D
330
A
100
AcDbEntity
  8
WARNER
  6
SOLID
 62
     7
100
AcDbCircle
 10
-487.010029698
 20
413.21051132
 30
0.0
 40
5.0
100
AcDbArc
 50
270.0
 51
360.0
  0
LINE
  5
6E
330
A
100
AcDbEntity
  8
WARNER
  6
SOLID
 62
     7
100
AcDbLine
 10
-688.6099442489999
 20
374.913619875
 30
0.0
 11
-751.6099442489998
 21
374.913619875
 31
0.0
  0
LINE
  5
6F
330
A
100
AcDbEntity
  8
WARNER
  6
SOLID
 62
     7
100
AcDbLine
 10
-499.010029698
 20
408.2105113199999
 30
0.0
 11
-487.010029698
 21
408.2105113199999
 31
0.0
  0
LINE
  5
70
330
A
100
AcDbEntity
  8
WARNER
  6
SOLID
 62
     7
100
AcDbLine
 10
-499.010029698
 20
406.3310460169999
 30
0.0
 11
-499.010029698
 21
424.3310460169999
 31
0.0
  0
LINE
  5
71
330
A
100
AcDbEntity
  8
WARNER
  6
SOLID
 62
     7
100
AcDbLine
 10
-503.010029698
 20
397.402687939
 30
0.0
 11
-503.010029698
 21
394.913619875
 31
0.0
  0
LINE
  5
72
330
A
100
AcDbEntity
  8
WARNER
  6
SOLID
 62
     7
100
AcDbLine
 10
-499.010029698
 20
421.3310460169999
 30
0.0
 11
-499.010029698
 21
406.3310460169999
 31
0.0
  0
LINE
  5
73
330
A
100
AcDbEntity
  8
WARNER
  6
SOLID
 62
     7
100
AcDbLine
 10
-482.010029698
 20
418.21051132
 30
0.0
 11
-482.010029698
 21
413.21051132
 31
0.0
  0
ARC
  5
74
330
A
100
AcDbEntity
  8
WARNER
  6
SOLID
 62
     7
100
AcDbCircle
 10
-487.010029698
 20
418.21051132
 30
0.0
 40
5.0
100
AcDbArc
 50
0.0
 51
90.0
  0
LINE
  5
75
330
A
100
AcDbEntity
  8
WARNER
  6
SOLID
 62
     7
100
AcDbLine
 10
-514.010029698
 20
424.3310460169999
 30
0.0
 11
-499.010029698
 21
424.3310460169999
 31
0.0
  0
LINE
  5
76
330
A
100
AcDbEntity
  8
WARNER
  6
SOLID
 62
     7
100
AcDbLine
 10
-514.010029698
 20
419.3310460169999
 30
0.0
 11
-522.010029698
 21
419.3310460169999
 31
0.0
  0
LINE
  5
77
330
A
100
AcDbEntity
  8
WARNER
  6
SOLID
 62
     7
100
AcDbLine
 10
-514.010029698
 20
418.3310460169999
 30
0.0
 11
-522.010029698
 21
418.3310460169999
 31
0.0
  0
LINE
  5
78
330
A
100
AcDbEntity
  8
WARNER
  6
SOLID
 62
     7
100
AcDbLine
 10
-514.010029698
 20
411.3310460169999
 30
0.0
 11
-522.010029698
 21
411.3310460169999
 31
0.0
  0
LINE
  5
79
330
A
100
AcDbEntity
  8
WARNER
  6
SOLID
 62
     7
100
AcDbLine
 10
-514.010029698
 20
412.3310460169999
 30
0.0
 11
-522.010029698
 21
412.3310460169999
 31
0.0
  0
LINE
  5
7A
330
A
100
AcDbEntity
  8
WARNER
  6
SOLID
 62
     7
100
AcDbLine
 10
-514.010029698
 20
406.3310460169999
 30
0.0
 11
-514.010029698
 21
424.3310460169999
 31
0.0
  0
LINE
  5
7B
330
A
100
AcDbEntity
  8
WARNER
  6
SOLID
 62
     7
100
AcDbLine
 10
-522.010029698
 20
423.21051132
 30
0.0
 11
-514.010029698
 21
423.21051132
 31
0.0
  0
ARC
  5
7C
330
A
100
AcDbEntity
  8
WARNER
  6
SOLID
 62
     7
100
AcDbCircle
 10
-487.010029698
 20
394.913619875
 30
0.0
 40
5.0
100
AcDbArc
 50
180.0
 51
270.0
  0
LINE
  5
7D
330
A
100
AcDbEntity
  8
WARNER
  6
SOLID
 62
     7
100
AcDbLine
 10
-492.010029698
 20
403.21051132
 30
0.0
 11
-492.010029698
 21
394.913619875
 31
0.0
  0
ARC
  5
7E
330
A
100
AcDbEntity
  8
WARNER
  6
SOLID
 62
     7
100
AcDbCircle
 10
-482.010029698
 20
384.913619875
 30
0.0
 40
5.0
100
AcDbArc
 50
0.0
 51
90.0
  0
ARC
  5
7F
330
A
100
AcDbEntity
  8
WARNER
  6
SOLID
 62
     7
100
AcDbCircle
 10
-482.010029698
 20
379.913619875
 30
0.0
 40
5.0
100
AcDbArc
 50
270.0
 51
0.0
  0
LINE
  5
80
330
A
100
AcDbEntity
  8
WARNER
  6
SOLID
 62
     7
100
AcDbLine
 10
-477.010029698
 20
384.913619875
 30
0.0
 11
-477.010029698
 21
379.913619875
 31
0.0
  0
LINE
  5
81
330
A
100
AcDbEntity
  8
WARNER
  6
SOLID
 62
     7
100
AcDbLine
 10
-499.010029698
 20
406.3310460169999
 30
0.0
 11
-503.010029698
 21
397.402687939
 31
0.0
  0
LINE
  5
82
330
A
100
AcDbEntity
  8
WARNER
  6
SOLID
 62
     7
100
AcDbLine
 10
-498.010029698
 20
389.913619875
 30
0.0
 11
-482.010029698
 21
389.913619875
 31
0.0
  0
LINE
  5
83
330
A
100
AcDbEntity
  8
WARNER
  6
SOLID
 62
     7
100
AcDbLine
 10
-537.809985288
 20
344.656376052
 30
0.0
 11
-503.813203679
 21
344.656376052
 31
0.0
  0
LINE
  5
84
330
A
100
AcDbEntity
  8
WARNER
  6
SOLID
 62
     7
100
AcDbLine
 10
-717.6099442489999
 20
389.913619875
 30
0.0
 11
-733.6099442489999
 21
389.913619875
 31
0.0
  0
LWPOLYLINE
  5
85
330
A
100
AcDbEntity
  8
WARNER
  6
SOLID
 62
     7
100
AcDbPolyline
 90
       53
 70
     0
 43
0.0
 10
-498.230215335
 20
346.359976763
 10
-497.571691408
 20
346.815774378
 10
-496.946110718
 20
347.274698248
 10
-496.3536926509999
 20
347.736587434
 10
-495.7946449619999
 20
348.201279956
 10
-495.269163704
 20
348.66861285
 10
-494.7774331569999
 20
349.138422229
 10
-494.319625767
 20
349.610543333
 10
-493.8959020819999
 20
350.084810596
 10
-493.5064106969999
 20
350.561057696
 10
-493.151288204
 20
351.039117619
 10
-492.83065914
 20
351.518822713
 10
-492.5446359469999
 20
352.00000475
 10
-492.29331893
 20
352.482494986
 10
-492.076796224
 20
352.966124215
 10
-491.8951437609999
 20
353.450722833
 10
-491.748425244
 20
353.936120897
 10
-491.6366921269999
 20
354.422148181
 10
-491.559983592
 20
354.9086342430001
 10
-491.5183265419999
 20
355.395408475
 10
-491.5117355849999
 20
355.88230017
 10
-491.540213031
 20
356.3691385809999
 10
-491.603748895
 20
356.855752978
 10
-491.7023208949999
 20
357.341972711
 10
-491.8358944619999
 20
357.827627267
 10
-492.004422755
 20
358.312546331
 10
-492.2078466709999
 20
358.796559848
 10
-492.4460948709999
 20
359.279498079
 10
-492.7190838059999
 20
359.761191661
 10
-493.026717739
 20
360.241471671
 10
-493.368888788
 20
360.720169679
 10
-493.745476955
 20
361.197117809
 10
-494.156350176
 20
361.672148801
 10
-494.6013643609999
 20
362.145096067
 10
-495.0803634469999
 20
362.615793749
 10
-495.5931794559999
 20
363.084076777
 10
-496.1396325469999
 20
363.549780929
 10
-496.719531085
 20
364.012742888
 10
-497.3326717049999
 20
364.472800297
 10
-497.9788393849999
 20
364.929791819
 10
-498.6578075199999
 20
365.383557191
 10
-500.113181308
 20
366.280774151
 10
-501.696751706
 20
367.1631927059999
 10
-503.4062975409999
 20
368.029575143
 10
-505.239420939
 20
368.878706242
 10
-507.193550695
 20
369.709394981
 10
-509.265945873
 20
370.5204762030001
 10
-511.453699654
 20
371.310812258
 10
-513.753743414
 20
372.07929459
 10
-516.1628510259999
 20
372.824845297
 10
-518.677643387
 20
373.546418642
 10
-521.294593154
 20
374.243002519
 10
-524.010029698
 20
374.913619875
  0
LINE
  5
86
330
A
100
AcDbEntity
  8
WARNER
  6
SOLID
 62
     7
100
AcDbLine
 10
-499.010029698
 20
423.21051132
 30
0.0
 11
-487.010029698
 21
423.21051132
 31
0.0
  0
ARC
  5
87
330
A
100
AcDbEntity
  8
WARNER
  6
SOLID
 62
     7
100
AcDbCircle
 10
-487.010029698
 20
403.21051132
 30
0.0
 40
5.0
100
AcDbArc
 50
90.0
 51
180.0
  0
LWPOLYLINE
  5
88
330
A
100
AcDbEntity
  8
WARNER
  6
SOLID
 62
     7
100
AcDbPolyline
 90
        9
 70
     0
 43
0.0
 10
-537.809985343
 20
359.5957205169999
 10
-537.8492903029999
 20
360.323762293
 10
-537.9669888849999
 20
361.051232431
 10
-538.162988785
 20
361.777560417
 10
-538.43713629
 20
362.502176632
 10
-538.7892164040001
 20
363.224512799
 10
-539.2189530069999
 20
363.94400243
 10
-539.726009083
 20
364.66008127
 10
-540.309986974
 20
365.3721877380001
  0
ARC
  5
89
330
A
100
AcDbEntity
  8
WARNER
  6
SOLID
 62
     7
100
AcDbCircle
 10
-763.6099442489999
 20
379.913619875
 30
0.0
 40
5.0
100
AcDbArc
 50
180.0
 51
270.0
  0
LINE
  5
8A
330
A
100
AcDbEntity
  8
WARNER
  6
SOLID
 62
     7
100
AcDbLine
 10
-407.8099869739999
 20
-7.141852317999999
 30
0.0
 11
-497.809986974
 21
-7.141852317999999
 31
0.0
  0
LINE
  5
8B
330
A
100
AcDbEntity
  8
WARNER
  6
SOLID
 62
     7
100
AcDbLine
 10
-407.8099869739999
 20
-7.141852317999999
 30
0.0
 11
-407.8099869739999
 21
-187.141852318
 31
0.0
  0
LINE
  5
8C
330
A
100
AcDbEntity
  8
WARNER
  6
SOLID
 62
     7
100
AcDbLine
 10
-497.809986974
 20
-7.141852317999999
 30
0.0
 11
-497.809986974
 21
-187.141852318
 31
0.0
  0
LINE
  5
8E
330
A
100
AcDbEntity
  8
WARNER
  6
CENTER
 62
     7
100
AcDbLine
 10
-452.809986974
 20
2.869783355
 30
0.0
 11
-452.809986974
 21
-187.141852318
 31
0.0
  0
LINE
  5
8F
330
A
100
AcDbEntity
  8
WARNER
  6
SOLID
 62
     7
100
AcDbLine
 10
-537.809985288
 20
336.230058643
 30
0.0
 11
-537.809985288
 21
359.595843602
 31
0.0
  0
ARC
  5
90
330
A
100
AcDbEntity
  8
WARNER
  6
SOLID
 62
     7
100
AcDbCircle
 10
-728.6099442489999
 20
394.913619875
 30
0.0
 40
5.0
100
AcDbArc
 50
270.0
 51
0.0
  0
ARC
  5
91
330
A
100
AcDbEntity
  8
WARNER
  6
SOLID
 62
     7
100
AcDbCircle
 10
-728.6099442489999
 20
394.913619875
 30
0.0
 40
5.0
100
AcDbArc
 50
270.0
 51
0.0
  0
ARC
  5
92
330
A
100
AcDbEntity
  8
WARNER
  6
SOLID
 62
     7
100
AcDbCircle
 10
-763.6099442489999
 20
384.913619875
 30
0.0
 40
5.0
100
AcDbArc
 50
90.0
 51
180.0
  0
ARC
  5
93
330
A
100
AcDbEntity
  8
WARNER
  6
SOLID
 62
     7
100
AcDbCircle
 10
-763.6099442489999
 20
379.913619875
 30
0.0
 40
5.0
100
AcDbArc
 50
180.0
 51
270.0
  0
LINE
  5
94
330
A
100
AcDbEntity
  8
WARNER
  6
SOLID
 62
     7
100
AcDbLine
 10
-768.6099442489998
 20
384.913619875
 30
0.0
 11
-768.6099442489998
 21
379.913619875
 31
0.0
  0
LWPOLYLINE
  5
95
330
A
100
AcDbEntity
  8
WARNER
  6
SOLID
 62
     7
100
AcDbPolyline
 90
       34
 70
     0
 43
0.0
 10
-763.6099442489999
 20
389.913619875
 10
-766.310408718
 20
389.247767648
 10
-768.9615829550001
 20
388.543246261
 10
-770.25328304
 20
388.16440052
 10
-771.514176731
 20
387.761386555
 10
-772.738102748
 20
387.329370719
 10
-773.918899813
 20
386.863519369
 10
-775.0504066469999
 20
386.358998859
 10
-776.126461971
 20
385.810975545
 10
-777.1409045060001
 20
385.214615781
 10
-777.6230955789999
 20
384.896799216
 10
-778.0875729739999
 20
384.565085922
 10
-778.5335665329999
 20
384.218871693
 10
-778.960306095
 20
383.857552324
 10
-779.367021501
 20
383.480523609
 10
-779.752942591
 20
383.0871813409999
 10
-780.1172992049999
 20
382.676921317
 10
-780.4593211819999
 20
382.249139329
 10
-780.7782383639999
 20
381.803231173
 10
-781.073280591
 20
381.3385926430001
 10
-781.431425231
 20
380.684652987
 10
-781.74789018
 20
379.998456627
 10
-782.025457902
 20
379.282628297
 10
-782.26691086
 20
378.539792733
 10
-782.47503152
 20
377.772574669
 10
-782.6526023439998
 20
376.98359884
 10
-782.802405797
 20
376.17548998
 10
-782.9272243419999
 20
375.350872824
 10
-783.0298404439998
 20
374.512372107
 10
-783.1130365659999
 20
373.662612564
 10
-783.232298728
 20
371.939815936
 10
-783.3072705389999
 20
370.203480818
 10
-783.360211712
 20
368.474605087
 10
-783.672168303
 20
358.160543343
  0
LINE
  5
96
330
A
100
AcDbEntity
  8
WARNER
  6
SOLID
 62
     7
100
AcDbLine
 10
-716.6099442489999
 20
406.3310460169999
 30
0.0
 11
-712.6099442489999
 21
397.402687939
 31
0.0
  0
LINE
  5
97
330
A
100
AcDbEntity
  8
WARNER
  6
SOLID
 62
     7
100
AcDbLine
 10
-716.6099442489999
 20
408.2105113199999
 30
0.0
 11
-750.340184446
 21
408.2105113199999
 31
0.0
  0
LINE
  5
98
330
A
100
AcDbEntity
  8
WARNER
  6
SOLID
 62
     7
100
AcDbLine
 10
-701.6099442489998
 20
406.3310460169999
 30
0.0
 11
-716.6099442489999
 21
406.3310460169999
 31
0.0
  0
LWPOLYLINE
  5
99
330
A
100
AcDbEntity
  8
WARNER
  6
SOLID
 62
     7
100
AcDbPolyline
 90
       49
 70
     0
 43
0.0
 10
-780.666152103
 20
381.965864776
 10
-781.102886595
 20
382.402311787
 10
-781.510440013
 20
382.840662639
 10
-781.888689741
 20
383.280785452
 10
-782.2375219789998
 20
383.722547811
 10
-782.5568317780001
 20
384.165816809
 10
-782.846523073
 20
384.610459084
 10
-783.1065087069999
 20
385.056340863
 10
-783.336710461
 20
385.503327998
 10
-783.537059077
 20
385.951286011
 10
-783.7074942789999
 20
386.400080128
 10
-783.8479647899999
 20
386.849575328
 10
-783.9584283489999
 20
387.299636376
 10
-784.038851722
 20
387.750127868
 10
-784.0892107119999
 20
388.20091427
 10
-784.109490169
 20
388.65185996
 10
-784.0996839909999
 20
389.102829266
 10
-784.05979513
 20
389.553686511
 10
-783.989835585
 20
390.004296052
 10
-783.889826405
 20
390.454522319
 10
-783.7597976769999
 20
390.904229858
 10
-783.599788523
 20
391.353283371
 10
-783.409847083
 20
391.801547757
 10
-783.190030501
 20
392.2488881519999
 10
-782.940404911
 20
392.69516997
 10
-782.6610454149999
 20
393.1402589440001
 10
-782.35203606
 20
393.584021166
 10
-782.013469815
 20
394.026323125
 10
-781.6454485389999
 20
394.467031753
 10
-781.248082954
 20
394.906014458
 10
-780.8214926119999
 20
395.34313917
 10
-780.3658058549999
 20
395.778274376
 10
-779.881159779
 20
396.2112891619999
 10
-778.8255815799999
 20
397.070437047
 10
-777.6560282360001
 20
397.91954898
 10
-776.3739071169999
 20
398.757603189
 10
-774.9807610499999
 20
399.58359121
 10
-773.478266466
 20
400.3965190989999
 10
-771.868231376
 20
401.195408625
 10
-770.1525932
 20
401.979298454
 10
-768.333416435
 20
402.747245299
 10
-766.4128901699999
 20
403.498325059
 10
-764.393325452
 20
404.231633929
 10
-762.2771525039999
 20
404.946289488
 10
-760.0669178019999
 20
405.6414317639999
 10
-757.765281012
 20
406.316224263
 10
-755.3750117849999
 20
406.96985498
 10
-752.8989864289999
 20
407.601537375
 10
-750.340184446
 20
408.2105113199999
  0
LINE
  5
9A
330
A
100
AcDbEntity
  8
WARNER
  6
SOLID
 62
     7
100
AcDbLine
 10
-723.6099442489999
 20
403.21051132
 30
0.0
 11
-723.6099442489999
 21
394.913619875
 31
0.0
  0
LINE
  5
9B
330
A
100
AcDbEntity
  8
WARNER
  6
SOLID
 62
     7
100
AcDbLine
 10
-723.6099442489999
 20
403.21051132
 30
0.0
 11
-723.6099442489999
 21
394.913619875
 31
0.0
  0
ARC
  5
9C
330
A
100
AcDbEntity
  8
WARNER
  6
SOLID
 62
     7
100
AcDbCircle
 10
-728.6099442489999
 20
403.21051132
 30
0.0
 40
5.0
100
AcDbArc
 50
0.0
 51
48.970114946
  0
LINE
  5
9D
330
A
100
AcDbEntity
  8
WARNER
  6
SOLID
 62
     7
100
AcDbLine
 10
-701.6099442489998
 20
424.3310460169999
 30
0.0
 11
-716.6099442489999
 21
424.3310460169999
 31
0.0
  0
LINE
  5
9E
330
A
100
AcDbEntity
  8
WARNER
  6
SOLID
 62
     7
100
AcDbLine
 10
-716.6099442489999
 20
423.21051132
 30
0.0
 11
-762.390388915
 21
423.21051132
 31
0.0
  0
LWPOLYLINE
  5
9F
330
A
100
AcDbEntity
  8
WARNER
  6
SOLID
 62
     7
100
AcDbPolyline
 90
       35
 70
     0
 43
0.0
 10
-762.390388915
 20
423.21051132
 10
-765.2496842599999
 20
422.512557965
 10
-768.0749009589999
 20
421.78786924
 10
-769.4568580049999
 20
421.401478325
 10
-770.8086992580001
 20
420.991460976
 10
-772.1231635239998
 20
420.552120641
 10
-773.39298961
 20
420.077760773
 10
-774.6109163219999
 20
419.5626848209999
 10
-775.7696824669999
 20
419.0011962359999
 10
-776.324611203
 20
418.701267034
 10
-776.8620268510001
 20
418.387598468
 10
-777.3810217589999
 20
418.059478468
 10
-777.880688281
 20
417.7161949669999
 10
-778.360118765
 20
417.357035895
 10
-778.818405563
 20
416.981289183
 10
-779.254641026
 20
416.588242764
 10
-779.667917505
 20
416.177184568
 10
-780.0573273489999
 20
415.7474025269999
 10
-780.4219629119999
 20
415.298184571
 10
-780.760916542
 20
414.828818633
 10
-781.073280591
 20
414.338592643
 10
-781.431425231
 20
413.6846529869999
 10
-781.74789018
 20
412.998456627
 10
-782.025457902
 20
412.282628297
 10
-782.26691086
 20
411.539792733
 10
-782.47503152
 20
410.7725746689999
 10
-782.6526023439998
 20
409.98359884
 10
-782.802405797
 20
409.1754899799999
 10
-782.9272243419999
 20
408.3508728239999
 10
-783.0298404439998
 20
407.5123721069999
 10
-783.1130365659999
 20
406.662612564
 10
-783.232298728
 20
404.9398159359999
 10
-783.3072705389999
 20
403.2034808179999
 10
-783.360211712
 20
401.474605087
 10
-783.672168303
 20
391.160543343
  0
LINE
  5
A0
330
A
100
AcDbEntity
  8
WARNER
  6
SOLID
 62
     7
100
AcDbLine
 10
-716.6099442489999
 20
406.3310460169999
 30
0.0
 11
-716.6099442489999
 21
424.3310460169999
 31
0.0
  0
LINE
  5
A1
330
A
100
AcDbEntity
  8
WARNER
  6
SOLID
 62
     7
100
AcDbLine
 10
-716.6099442489999
 20
421.3310460169999
 30
0.0
 11
-716.6099442489999
 21
406.3310460169999
 31
0.0
  0
LINE
  5
A2
330
A
100
AcDbEntity
  8
WARNER
  6
SOLID
 62
     7
100
AcDbLine
 10
-701.6099442489998
 20
406.3310460169999
 30
0.0
 11
-701.6099442489998
 21
424.3310460169999
 31
0.0
  0
LINE
  5
A3
330
A
100
AcDbEntity
  8
WARNER
  6
SOLID
 62
     7
100
AcDbLine
 10
-693.6099442489998
 20
423.21051132
 30
0.0
 11
-701.6099442489998
 21
423.21051132
 31
0.0
  0
LINE
  5
A4
330
A
100
AcDbEntity
  8
WARNER
  6
SOLID
 62
     7
100
AcDbLine
 10
-701.6099442489998
 20
419.3310460169999
 30
0.0
 11
-693.6099442489998
 21
419.3310460169999
 31
0.0
  0
LINE
  5
A5
330
A
100
AcDbEntity
  8
WARNER
  6
SOLID
 62
     7
100
AcDbLine
 10
-701.6099442489998
 20
418.3310460169999
 30
0.0
 11
-693.6099442489998
 21
418.3310460169999
 31
0.0
  0
LINE
  5
A6
330
A
100
AcDbEntity
  8
WARNER
  6
SOLID
 62
     7
100
AcDbLine
 10
-701.6099442489998
 20
411.3310460169999
 30
0.0
 11
-693.6099442489998
 21
411.3310460169999
 31
0.0
  0
LINE
  5
A7
330
A
100
AcDbEntity
  8
WARNER
  6
SOLID
 62
     7
100
AcDbLine
 10
-701.6099442489998
 20
412.3310460169999
 30
0.0
 11
-693.6099442489998
 21
412.3310460169999
 31
0.0
  0
LINE
  5
A8
330
A
100
AcDbEntity
  8
WARNER
  6
SOLID
 62
     7
100
AcDbLine
 10
-737.809985288
 20
452.141801807
 30
0.0
 11
-737.809985288
 21
423.21051132
 31
0.0
  0
LWPOLYLINE
  5
A9
330
A
100
AcDbEntity
  8
WARNER
  6
SOLID
 62
     7
100
AcDbPolyline
 90
       31
 70
     0
 43
0.0
 10
-537.833182199
 20
335.670071266
 10
-537.8100139499999
 20
336.210373597
 10
-537.830035465
 20
336.75068443
 10
-537.893238098
 20
337.290770406
 10
-537.999594551
 20
337.830398263
 10
-538.14905889
 20
338.369334937
 10
-538.341566561
 20
338.907347662
 10
-538.577034421
 20
339.444204072
 10
-538.8553607709999
 20
339.9796723
 10
-539.176425403
 20
340.513521078
 10
-539.5400896499999
 20
341.045519838
 10
-539.9461964469999
 20
341.575438811
 10
-540.3945703949999
 20
342.103049127
 10
-540.8850178449999
 20
342.62812291
 10
-541.417326972
 20
343.150433385
 10
-541.9912678730001
 20
343.669754964
 10
-542.6065926649999
 20
344.185863356
 10
-543.2630355899999
 20
344.698535653
 10
-543.960313133
 20
345.2075504330001
 10
-544.69812414
 20
345.712687855
 10
-545.476149952
 20
346.2137297509999
 10
-546.294054542
 20
346.710459721
 10
-547.151484659
 20
347.202663229
 10
-548.04806998
 20
347.690127694
 10
-548.983423273
 20
348.172642581
 10
-549.95714056
 20
348.6499994919999
 10
-550.968801295
 20
349.121992258
 10
-552.017968544
 20
349.588417027
 10
-553.104189174
 20
350.049072351
 10
-555.3858982309999
 20
350.952281416
 10
-557.8099870319999
 20
351.830059247
  0
LWPOLYLINE
  5
AA
330
A
100
AcDbEntity
  8
WARNER
  6
SOLID
 62
     7
100
AcDbPolyline
 90
       99
 70
     0
 43
0.0
 10
-500.2311288219999
 20
424.3310460169999
 10
-496.8612627449999
 20
425.4701770969999
 10
-493.633981508
 20
426.636289403
 10
-490.552549854
 20
427.8282032859999
 10
-487.620084983
 20
429.0447129969999
 10
-486.210648093
 20
429.661807654
 10
-484.8395533989999
 20
430.284587906
 10
-483.5071476759999
 20
430.9128962389999
 10
-482.2137679119999
 20
431.546573744
 10
-480.959741226
 20
432.185460153
 10
-479.7453847849999
 20
432.8293938779999
 10
-478.571005721
 20
433.478212058
 10
-477.436901055
 20
434.1317505959999
 10
-476.343357624
 20
434.7898441989999
 10
-475.290652003
 20
435.452326424
 10
-474.27905044
 20
436.119029717
 10
-473.308808789
 20
436.7897854559999
 10
-472.3801724409999
 20
437.464423997
 10
-471.493376264
 20
438.14277471
 10
-470.648644545
 20
438.824666029
 10
-469.8461909319999
 20
439.5099254899999
 10
-469.08621838
 20
440.1983797799999
 10
-468.368919099
 20
440.8898547749999
 10
-467.694474508
 20
441.5841755909999
 10
-467.0630551859999
 20
442.281166619
 10
-466.4748208299999
 20
442.98065158
 10
-465.9299202139999
 20
443.68245356
 10
-465.428491155
 20
444.3863950609999
 10
-464.9706604719999
 20
445.092298043
 10
-464.556543959
 20
445.7999839719999
 10
-464.1862463539999
 20
446.50927386
 10
-463.859861311
 20
447.219988316
 10
-463.57747138
 20
447.9319475869999
 10
-463.339147981
 20
448.644971606
 10
-463.1449513909999
 20
449.3588800359999
 10
-462.994930726
 20
450.0734923169999
 10
-462.8891239289999
 20
450.7886277109999
 10
-462.82755776
 20
451.504105346
 10
-462.8102477899999
 20
452.2197442659999
 10
-462.8371983969999
 20
452.935363474
 10
-462.908402765
 20
453.6507819749999
 10
-463.023842886
 20
454.365818828
 10
-463.1834895609999
 20
455.080293188
 10
-463.387302415
 20
455.79402435
 10
-463.635229898
 20
456.5068317989999
 10
-463.9272093059999
 20
457.218535254
 10
-464.2631667919999
 20
457.9289547119999
 10
-464.6430173849999
 20
458.637910495
 10
-465.0666650149999
 20
459.3452232949999
 10
-465.534002535
 20
460.0507142199999
 10
-466.0449117449999
 20
460.75420484
 10
-466.599263428
 20
461.455517228
 10
-467.1969173769999
 20
462.15447401
 10
-467.837722437
 20
462.850898408
 10
-468.5215165349999
 20
463.544614282
 10
-469.248126729
 20
464.235446181
 10
-470.0173692439999
 20
464.9232193789999
 10
-470.8290495259999
 20
465.607759928
 10
-471.6829622859999
 20
466.288894693
 10
-472.5788915549999
 20
466.9664514049999
 10
-473.5166107359999
 20
467.640258697
 10
-474.4958826619999
 20
468.3101461499999
 10
-475.516459659
 20
468.975944339
 10
-476.578083603
 20
469.6374848709999
 10
-477.6804859919999
 20
470.29460043
 10
-478.823388008
 20
470.9471248199999
 10
-480.0065005909999
 20
471.594893006
 10
-481.229524509
 20
472.237741156
 10
-482.4921504389999
 20
472.8755066819999
 10
-483.7940590389999
 20
473.5080282819999
 10
-485.134921034
 20
474.135145979
 10
-486.5143972959999
 20
474.756701164
 10
-487.932138929
 20
475.372536635
 10
-490.880974435
 20
476.5864268969999
 10
-493.978444488
 20
477.775588783
 10
-497.2214156619999
 20
478.938819328
 10
-500.6066073419999
 20
480.074941798
 10
-504.1305950409999
 20
481.1828068839999
 10
-507.789813866
 20
482.26129386
 10
-511.5805621219999
 20
483.3093117199999
 10
-515.499005059
 20
484.3258002809999
 10
-519.541178747
 20
485.309731256
 10
-523.702994094
 20
486.260109292
 10
-527.980240973
 20
487.1759729779999
 10
-532.368592487
 20
488.0563958209999
 10
-536.863609346
 20
488.9004871769999
 10
-541.4607443559999
 20
489.7073931569999
 10
-546.1553470169999
 20
490.476297488
 10
-550.942668234
 20
491.2064223409999
 10
-555.817865114
 20
491.8970291159999
 10
-560.7760058689999
 20
492.547419189
 10
-565.8120748059999
 20
493.1569346209999
 10
-570.920977397
 20
493.7249588219999
 10
-576.097545436
 20
494.2509171719999
 10
-581.336542265
 20
494.734277609
 10
-586.6326680759999
 20
495.1745511619999
 10
-591.980565264
 20
495.571292446
 10
-597.374823855
 20
495.9241001149999
 10
-602.809986974
 20
496.232617265
  0
LINE
  5
AB
330
A
100
AcDbEntity
  8
WARNER
  6
SOLID
 62
     7
100
AcDbLine
 10
-604.809986974
 20
370.451505311
 30
0.0
 11
-604.809986974
 21
364.367063699
 31
0.0
  0
LWPOLYLINE
  5
AC
330
A
100
AcDbEntity
  8
WARNER
  6
SOLID
 62
     7
100
AcDbPolyline
 90
       57
 70
     0
 43
0.0
 10
-604.809793888
 20
370.5861365890001
 10
-604.824239708
 20
370.782170869
 10
-604.8674380469999
 20
370.976317233
 10
-604.938972881
 20
371.166705943
 10
-605.0381552909999
 20
371.351503453
 10
-605.164030095
 20
371.528930062
 10
-605.315385051
 20
371.697277055
 10
-605.490762528
 20
371.854923157
 10
-605.6884735449999
 20
372.000350151
 10
-605.9066140359999
 20
372.132157495
 10
-606.143083189
 20
372.2490758130001
 10
-606.395603678
 20
372.349979117
 10
-606.661743591
 20
372.433895654
 10
-607.2245229219999
 20
372.547707149
 10
-607.809793888
 20
372.5861365890001
 10
-608.395064854
 20
372.547707149
 10
-608.957844185
 20
372.433895654
 10
-609.223984099
 20
372.349979117
 10
-609.476504587
 20
372.2490758130001
 10
-609.7129737409999
 20
372.132157495
 10
-609.9311142319999
 20
372.000350151
 10
-610.1288252479999
 20
371.854923157
 10
-610.3042027249999
 20
371.697277055
 10
-610.455557681
 20
371.528930062
 10
-610.581432486
 20
371.351503453
 10
-610.6806148949999
 20
371.166705943
 10
-610.75214973
 20
370.976317233
 10
-610.795348068
 20
370.782170869
 10
-610.809793888
 20
370.5861365890001
 10
-610.795348068
 20
370.3901023080001
 10
-610.75214973
 20
370.195955945
 10
-610.6806148949999
 20
370.005567234
 10
-610.581432486
 20
369.820769724
 10
-610.455557681
 20
369.643343115
 10
-610.3042027249999
 20
369.474996123
 10
-610.1288252479999
 20
369.31735002
 10
-609.9311142319999
 20
369.171923026
 10
-609.7129737409999
 20
369.040115682
 10
-609.476504587
 20
368.923197364
 10
-609.223984099
 20
368.82229406
 10
-608.957844185
 20
368.7383775240001
 10
-608.395064854
 20
368.624566028
 10
-607.809793888
 20
368.5861365890001
 10
-607.2245229219999
 20
368.624566028
 10
-606.661743591
 20
368.7383775240001
 10
-606.395603678
 20
368.82229406
 10
-606.143083189
 20
368.923197364
 10
-605.9066140359999
 20
369.040115682
 10
-605.6884735449999
 20
369.171923026
 10
-605.490762528
 20
369.31735002
 10
-605.315385051
 20
369.474996123
 10
-605.164030095
 20
369.643343115
 10
-605.0381552909999
 20
369.820769724
 10
-604.938972881
 20
370.005567234
 10
-604.8674380469999
 20
370.195955945
 10
-604.824239708
 20
370.3901023080001
 10
-604.809793888
 20
370.5861365890001
  0
LINE
  5
AD
330
A
100
AcDbEntity
  8
WARNER
  6
SOLID
 62
     7
100
AcDbLine
 10
-610.809986974
 20
370.617944026
 30
0.0
 11
-610.809986974
 21
364.391694454
 31
0.0
  0
LINE
  5
AE
330
A
100
AcDbEntity
  8
WARNER
  6
SOLID
 62
     7
100
AcDbLine
 10
-543.009986783
 20
421.3308395469999
 30
0.0
 11
-537.010029698
 21
421.3308395469999
 31
0.0
  0
LINE
  5
AF
330
A
100
AcDbEntity
  8
WARNER
  6
SOLID
 62
     7
100
AcDbLine
 10
-543.009986783
 20
409.330839547
 30
0.0
 11
-537.010029698
 21
409.330839547
 31
0.0
  0
LINE
  5
B0
330
A
100
AcDbEntity
  8
WARNER
  6
SOLID
 62
     7
100
AcDbLine
 10
-537.010029698
 20
409.330839547
 30
0.0
 11
-537.010029698
 21
406.3310460169999
 31
0.0
  0
LINE
  5
B1
330
A
100
AcDbEntity
  8
WARNER
  6
SOLID
 62
     7
100
AcDbLine
 10
-536.010029698
 20
405.3310460169999
 30
0.0
 11
-537.010029698
 21
406.3310460169999
 31
0.0
  0
LINE
  5
B2
330
A
100
AcDbEntity
  8
WARNER
  6
SOLID
 62
     7
100
AcDbLine
 10
-536.010029698
 20
405.3310460169999
 30
0.0
 11
-523.010029698
 21
405.3310460169999
 31
0.0
  0
LINE
  5
B3
330
A
100
AcDbEntity
  8
WARNER
  6
SOLID
 62
     7
100
AcDbLine
 10
-522.010029698
 20
406.3310460169999
 30
0.0
 11
-523.010029698
 21
405.3310460169999
 31
0.0
  0
LINE
  5
B4
330
A
100
AcDbEntity
  8
WARNER
  6
SOLID
 62
     7
100
AcDbLine
 10
-522.010029698
 20
406.3310460169999
 30
0.0
 11
-522.010029698
 21
415.3310460169999
 31
0.0
  0
LINE
  5
B5
330
A
100
AcDbEntity
  8
WARNER
  6
SOLID
 62
     7
100
AcDbLine
 10
-522.010029698
 20
424.3310460169999
 30
0.0
 11
-522.010029698
 21
415.3310460169999
 31
0.0
  0
LINE
  5
B6
330
A
100
AcDbEntity
  8
WARNER
  6
SOLID
 62
     7
100
AcDbLine
 10
-522.010029698
 20
424.3310460169999
 30
0.0
 11
-523.010029698
 21
425.3310460169999
 31
0.0
  0
LINE
  5
B7
330
A
100
AcDbEntity
  8
WARNER
  6
SOLID
 62
     7
100
AcDbLine
 10
-537.010029698
 20
406.3310460169999
 30
0.0
 11
-537.010029698
 21
424.3310460169999
 31
0.0
  0
LINE
  5
B8
330
A
100
AcDbEntity
  8
WARNER
  6
SOLID
 62
     7
100
AcDbLine
 10
-536.010029698
 20
425.3310460169999
 30
0.0
 11
-537.010029698
 21
424.3310460169999
 31
0.0
  0
LINE
  5
B9
330
A
100
AcDbEntity
  8
WARNER
  6
SOLID
 62
     7
100
AcDbLine
 10
-536.010029698
 20
425.3310460169999
 30
0.0
 11
-523.010029698
 21
425.3310460169999
 31
0.0
  0
LINE
  5
BA
330
A
100
AcDbEntity
  8
WARNER
  6
SOLID
 62
     7
100
AcDbLine
 10
-602.809986974
 20
449.8708142619999
 30
0.0
 11
-602.809986974
 21
538.330893429
 31
0.0
  0
LINE
  5
BB
330
A
100
AcDbEntity
  8
WARNER
  6
SOLID
 62
     7
100
AcDbLine
 10
-600.461517745
 20
538.330893429
 30
0.0
 11
-607.809986974
 21
538.330893429
 31
0.0
  0
ARC
  5
BC
330
A
100
AcDbEntity
  8
WARNER
  6
SOLID
 62
     7
100
AcDbCircle
 10
-607.809986974
 20
550.830893429
 30
0.0
 40
14.5
100
AcDbArc
 50
300.450314021
 51
355.39768566
  0
ARC
  5
BD
330
A
100
AcDbEntity
  8
WARNER
  6
SOLID
 62
     7
100
AcDbCircle
 10
-592.409986968
 20
550.830893429
 30
0.0
 40
1.5
100
AcDbArc
 50
129.136409796
 51
230.863590204
  0
ARC
  5
BE
330
A
100
AcDbEntity
  8
WARNER
  6
SOLID
 62
     7
100
AcDbCircle
 10
-607.809986974
 20
550.830893429
 30
0.0
 40
14.5
100
AcDbArc
 50
4.60231434
 51
90.0
  0
LINE
  5
BF
330
A
100
AcDbEntity
  8
WARNER
  6
SOLID
 62
     7
100
AcDbLine
 10
-602.809986974
 20
466.3308934289999
 30
0.0
 11
-547.0099906999999
 21
466.3308934289999
 31
0.0
  0
LINE
  5
C0
330
A
100
AcDbEntity
  8
WARNER
  6
SOLID
 62
     7
100
AcDbLine
 10
-612.809986974
 20
449.8708265159999
 30
0.0
 11
-612.809986974
 21
538.330893429
 31
0.0
  0
LINE
  5
C1
330
A
100
AcDbEntity
  8
WARNER
  6
SOLID
 62
     7
100
AcDbLine
 10
-612.809986974
 20
538.330893429
 30
0.0
 11
-607.809986974
 21
538.330893429
 31
0.0
  0
LINE
  5
C2
330
A
100
AcDbEntity
  8
WARNER
  6
SOLID
 62
     7
100
AcDbLine
 10
-615.158456202
 20
538.330893429
 30
0.0
 11
-607.809986974
 21
538.330893429
 31
0.0
  0
ARC
  5
C3
330
A
100
AcDbEntity
  8
WARNER
  6
SOLID
 62
     7
100
AcDbCircle
 10
-607.809986974
 20
550.830893429
 30
0.0
 40
14.5
100
AcDbArc
 50
184.60231434
 51
239.549685979
  0
ARC
  5
C4
330
A
100
AcDbEntity
  8
WARNER
  6
SOLID
 62
     7
100
AcDbCircle
 10
-623.20998698
 20
550.830893429
 30
0.0
 40
1.5
100
AcDbArc
 50
309.136409796
 51
50.86359020399999
  0
ARC
  5
C5
330
A
100
AcDbEntity
  8
WARNER
  6
SOLID
 62
     7
100
AcDbCircle
 10
-607.809986974
 20
550.830893429
 30
0.0
 40
14.5
100
AcDbArc
 50
90.0
 51
175.39768566
  0
LINE
  5
C6
330
A
100
AcDbEntity
  8
WARNER
  6
CENTER
 62
     7
100
AcDbLine
 10
-567.809986974
 20
364.576610828
 30
0.0
 11
-560.3349869739999
 21
364.576610828
 31
0.0
  0
LINE
  5
C7
330
A
100
AcDbEntity
  8
WARNER
  6
CENTER
 62
     7
100
AcDbLine
 10
-567.809986974
 20
364.576610828
 30
0.0
 11
-580.2123224159999
 21
364.576610828
 31
0.0
  0
LINE
  5
C8
330
A
100
AcDbEntity
  8
WARNER
  6
CENTER
 62
     7
100
AcDbLine
 10
-567.809986974
 20
364.576610828
 30
0.0
 11
-567.809986974
 21
355.945224071
 31
0.0
  0
LINE
  5
C9
330
A
100
AcDbEntity
  8
WARNER
  6
SOLID
 62
     7
100
AcDbLine
 10
-574.309793888
 20
364.330893429
 30
0.0
 11
-574.309793888
 21
360.823839399
 31
0.0
  0
LINE
  5
CA
330
A
100
AcDbEntity
  8
WARNER
  6
SOLID
 62
     7
100
AcDbLine
 10
-574.309793888
 20
360.823839399
 30
0.0
 11
-567.8097937239999
 21
357.0710624869999
 31
0.0
  0
LINE
  5
CB
330
A
100
AcDbEntity
  8
WARNER
  6
CENTER
 62
     7
100
AcDbLine
 10
-647.809986974
 20
364.576610828
 30
0.0
 11
-640.334986974
 21
364.576610828
 31
0.0
  0
LINE
  5
CC
330
A
100
AcDbEntity
  8
WARNER
  6
CENTER
 62
     7
100
AcDbLine
 10
-647.809986974
 20
364.576610828
 30
0.0
 11
-655.284986878
 21
364.576610828
 31
0.0
  0
LINE
  5
CD
330
A
100
AcDbEntity
  8
WARNER
  6
CENTER
 62
     7
100
AcDbLine
 10
-647.809986974
 20
364.576610828
 30
0.0
 11
-647.809986974
 21
373.207997608
 31
0.0
  0
LINE
  5
CE
330
A
100
AcDbEntity
  8
WARNER
  6
SOLID
 62
     7
100
AcDbLine
 10
-567.809793888
 20
357.071062537
 30
0.0
 11
-561.309793724
 21
360.823839449
 31
0.0
  0
LINE
  5
CF
330
A
100
AcDbEntity
  8
WARNER
  6
SOLID
 62
     7
100
AcDbLine
 10
-561.3097938880001
 20
360.823839399
 30
0.0
 11
-561.3097938880001
 21
364.330893429
 31
0.0
  0
LINE
  5
D0
330
A
100
AcDbEntity
  8
WARNER
  6
SOLID
 62
     7
100
AcDbLine
 10
-654.309793888
 20
364.330893429
 30
0.0
 11
-654.309793888
 21
360.823839399
 31
0.0
  0
LINE
  5
D1
330
A
100
AcDbEntity
  8
WARNER
  6
SOLID
 62
     7
100
AcDbLine
 10
-654.309793888
 20
360.823839399
 30
0.0
 11
-647.809793724
 21
357.0710624869999
 31
0.0
  0
LINE
  5
D2
330
A
100
AcDbEntity
  8
WARNER
  6
SOLID
 62
     7
100
AcDbLine
 10
-647.809793888
 20
357.071062537
 30
0.0
 11
-641.3097937239999
 21
360.823839449
 31
0.0
  0
LINE
  5
D3
330
A
100
AcDbEntity
  8
WARNER
  6
SOLID
 62
     7
100
AcDbLine
 10
-641.309793888
 20
360.823839399
 30
0.0
 11
-641.309793888
 21
364.330893429
 31
0.0
  0
LINE
  5
D4
330
A
100
AcDbEntity
  8
WARNER
  6
SOLID
 62
     7
100
AcDbLine
 10
-595.310002233
 20
439.3308962909999
 30
0.0
 11
-595.310002233
 21
435.3308963369999
 31
0.0
  0
LINE
  5
D5
330
A
100
AcDbEntity
  8
WARNER
  6
SOLID
 62
     7
100
AcDbLine
 10
-620.310002233
 20
439.3308962909999
 30
0.0
 11
-620.310002233
 21
435.3308962929999
 31
0.0
  0
LINE
  5
D6
330
A
100
AcDbEntity
  8
WARNER
  6
SOLID
 62
     7
100
AcDbLine
 10
-591.8100022329999
 20
435.3308962859999
 30
0.0
 11
-591.8100022329999
 21
431.3308962859999
 31
0.0
  0
LINE
  5
D7
330
A
100
AcDbEntity
  8
WARNER
  6
SOLID
 62
     7
100
AcDbLine
 10
-623.810002233
 20
435.3308962909999
 30
0.0
 11
-623.810002233
 21
431.3308962909999
 31
0.0
  0
LWPOLYLINE
  5
D8
330
A
100
AcDbEntity
  8
WARNER
  6
SOLID
 62
     7
100
AcDbPolyline
 90
       65
 70
     0
 43
0.0
 10
-623.810002191
 20
431.3298207149999
 10
-623.7906747769999
 20
430.593837025
 10
-623.7328516769999
 20
429.85962883
 10
-623.63667218
 20
429.1289647569999
 10
-623.502367972
 20
428.403604894
 10
-623.330262577
 20
427.6852965559999
 10
-623.120770578
 20
426.975770068
 10
-622.8743966189999
 20
426.2767346
 10
-622.5917341859999
 20
425.589874053
 10
-622.2734641839999
 20
424.916842999
 10
-621.9203532889999
 20
424.259262695
 10
-621.533252108
 20
423.618717181
 10
-621.113093123
 20
422.996749459
 10
-620.660888452
 20
422.3948577829999
 10
-620.177727407
 20
421.814492043
 10
-619.664773869
 20
421.257050276
 10
-619.123263488
 20
420.723875298
 10
-618.5545007009999
 20
420.2162514699999
 10
-617.959855597
 20
419.7354016019999
 10
-617.3407606099999
 20
419.282484007
 10
-616.698707073
 20
418.858589716
 10
-616.0352416199999
 20
418.464739842
 10
-615.351962469
 20
418.1018831269999
 10
-614.6505155639999
 20
417.770893654
 10
-613.9325906119999
 20
417.472568738
 10
-613.1999170169999
 20
417.2076270119999
 10
-612.4542597089999
 20
416.976706692
 10
-611.6974148939999
 20
416.7803640389999
 10
-610.931205729
 20
416.6190720219999
 10
-610.1574779269999
 20
416.493219175
 10
-609.378095313
 20
416.403108663
 10
-608.5949353359999
 20
416.348957554
 10
-607.8098845409999
 20
416.3308962909999
 10
-607.024834029
 20
416.3489683819999
 10
-606.241674902
 20
416.4031302919999
 10
-605.462293703
 20
416.493251553
 10
-604.6885678759999
 20
416.619115071
 10
-603.9223612419999
 20
416.7804176559999
 10
-603.1655195079999
 20
416.976770747
 10
-602.419865824
 20
417.207701351
 10
-601.6871963859999
 20
417.472653182
 10
-600.9692761159999
 20
417.770987999
 10
-600.267834404
 20
418.101987147
 10
-599.5845609469999
 20
418.4648532859999
 10
-598.921101675
 20
418.8587123099999
 10
-598.27905479
 20
419.2826154569999
 10
-597.6599669099999
 20
419.73554159
 10
-597.0653293519999
 20
420.216399659
 10
-596.4965745309999
 20
420.7240313319999
 10
-595.9550725159999
 20
421.2572137769999
 10
-595.4421277259999
 20
421.814662619
 10
-594.958975788
 20
422.395035023
 10
-594.5067805619999
 20
422.996932936
 10
-594.086631338
 20
423.6189064519999
 10
-593.6995402079999
 20
424.2594573059999
 10
-593.3464396319999
 20
424.9170424789999
 10
-593.0281801909999
 20
425.590077923
 10
-592.7455285369999
 20
426.276942368
 10
-592.4991655469999
 20
426.975981234
 10
-592.2896846819999
 20
427.685510612
 10
-592.1175905590001
 20
428.403821324
 10
-591.9832977339999
 20
429.129183038
 10
-591.8871297019999
 20
429.859848438
 10
-591.829318123
 20
430.59405743
 10
-591.810002259
 20
431.330041387
  0
LWPOLYLINE
  5
D9
330
A
100
AcDbEntity
  8
WARNER
  6
SOLID
 62
     7
100
AcDbPolyline
 90
       65
 70
     0
 43
0.0
 10
-620.310002148
 20
435.32956188
 10
-620.294876475
 20
434.7653281
 10
-620.2496782189999
 20
434.202456617
 10
-620.1745162489999
 20
433.6423032309999
 10
-620.069571609
 20
433.086217195
 10
-619.9350970830001
 20
432.535537965
 10
-619.7714165819999
 20
431.991591975
 10
-619.578924366
 20
431.455689439
 10
-619.358084096
 20
430.9291211959999
 10
-619.109427714
 20
430.4131556029999
 10
-618.8335541649999
 20
429.9090354769999
 10
-618.53112795
 20
429.4179751029999
 10
-618.202877531
 20
428.941157308
 10
-617.8495935709999
 20
428.4797306149999
 10
-617.472127032
 20
428.034806471
 10
-617.071387127
 20
427.607456574
 10
-616.6483391259999
 20
427.1987102909999
 10
-616.204002035
 20
426.809552179
 10
-615.739446136
 20
426.4409196109999
 10
-615.255790416
 20
426.093700519
 10
-614.754199868
 20
425.7687312589999
 10
-614.235882682
 20
425.466794589
 10
-613.70208734
 20
425.188617793
 10
-613.1540996069999
 20
424.934870919
 10
-612.593239432
 20
424.706165174
 10
-612.0208577719999
 20
424.5030514459999
 10
-611.4383333340001
 20
424.3260189789999
 10
-610.8470692569999
 20
424.175494196
 10
-610.2484897319999
 20
424.051839668
 10
-609.64403657
 20
423.955353244
 10
-609.03516573
 20
423.8862673349999
 10
-608.423343813
 20
423.844748348
 10
-607.8100445269999
 20
423.8308962909999
 10
-607.1967451389999
 20
423.844744529
 10
-606.584922916
 20
423.8862597069999
 10
-605.9760515689999
 20
423.9553418259999
 10
-605.3715976969999
 20
424.0518244859999
 10
-604.7730172619999
 20
424.175475288
 10
-604.181752078
 20
424.3259963899999
 10
-603.5992263379999
 20
424.50302523
 10
-603.0268431839999
 20
424.706135395
 10
-602.465981327
 20
424.934837648
 10
-601.917991728
 20
425.18858111
 10
-601.38419434
 20
425.466754584
 10
-600.865874933
 20
425.768688026
 10
-600.364281994
 20
426.093654164
 10
-599.88062372
 20
426.4408702439999
 10
-599.4160651099999
 20
426.80949992
 10
-598.9717251559999
 20
427.198655266
 10
-598.548674148
 20
427.6073989149999
 10
-598.1479311000001
 20
428.034746317
 10
-597.770461289
 20
428.4796681109999
 10
-597.417173935
 20
428.941092605
 10
-597.0889200080001
 20
429.417908356
 10
-596.7864901809999
 20
429.9089668469999
 10
-596.510612924
 20
430.413085255
 10
-596.261952747
 20
430.9290492999999
 10
-596.0411086039999
 20
431.455616168
 10
-595.8486124459999
 20
431.991517506
 10
-595.684927944
 20
432.535462478
 10
-595.5504493669999
 20
433.08614087
 10
-595.4455006369999
 20
433.642226253
 10
-595.370334547
 20
434.2023791709999
 10
-595.3251321499999
 20
434.765250373
 10
-595.310002327
 20
435.329484058
  0
LWPOLYLINE
  5
DA
330
A
100
AcDbEntity
  8
WARNER
  6
SOLID
 62
     7
100
AcDbPolyline
 90
      129
 70
     0
 43
0.0
 10
-595.310002233
 20
439.3308962909999
 10
-595.32505903
 20
439.8951745449999
 10
-595.370193149
 20
440.458093404
 10
-595.445295858
 20
441.0182967469999
 10
-595.550186228
 20
441.5744349939999
 10
-595.684611568
 20
442.125168359
 10
-595.8482480359999
 20
442.669170079
 10
-596.040701418
 20
443.205129605
 10
-596.261508076
 20
443.731755763
 10
-596.510136069
 20
444.2477798649999
 10
-596.785986428
 20
444.751958764
 10
-597.088394608
 20
445.243077849
 10
-597.416632079
 20
445.71995397
 10
-597.769908089
 20
446.181438292
 10
-598.1473715659999
 20
446.626419058
 10
-598.548113166
 20
447.0538242709999
 10
-598.9711674679999
 20
447.462624274
 10
-599.4155152969999
 20
447.851834232
 10
-599.88008618
 20
448.2205165039999
 10
-600.3637609259999
 20
448.567782903
 10
-600.86537432
 20
448.8927968319999
 10
-601.38371793
 20
449.1947753059999
 10
-601.917543022
 20
449.472990831
 10
-602.465563565
 20
449.726773161
 10
-603.026459328
 20
449.955510914
 10
-603.598879065
 20
450.15865304
 10
-604.181443767
 20
450.3357101509999
 10
-604.772749984
 20
450.486255702
 10
-605.3713732069999
 20
450.609927015
 10
-605.9758713019999
 20
450.706426155
 10
-606.584787978
 20
450.7755206469999
 10
-607.1966563030001
 20
450.8170440369999
 10
-607.810002233
 20
450.830896291
 10
-608.423348162
 20
450.8170440369999
 10
-609.0352164869999
 20
450.7755206469999
 10
-609.644133163
 20
450.706426155
 10
-610.248631258
 20
450.609927015
 10
-610.8472544809999
 20
450.486255702
 10
-611.438560698
 20
450.3357101509999
 10
-612.0211253999999
 20
450.15865304
 10
-612.593545137
 20
449.955510914
 10
-613.1544409
 20
449.726773161
 10
-613.702461443
 20
449.472990831
 10
-614.2362865349999
 20
449.1947753059999
 10
-614.7546301449999
 20
448.8927968319999
 10
-615.256243539
 20
448.567782903
 10
-615.739918285
 20
448.2205165039999
 10
-616.2044891679999
 20
447.851834232
 10
-616.6488369969999
 20
447.462624274
 10
-617.071891299
 20
447.0538242709999
 10
-617.4726329
 20
446.626419058
 10
-617.850096376
 20
446.181438292
 10
-618.203372386
 20
445.71995397
 10
-618.531609858
 20
445.243077849
 10
-618.8340180369999
 20
444.751958764
 10
-619.1098683969999
 20
444.2477798649999
 10
-619.358496389
 20
443.731755763
 10
-619.5793030469999
 20
443.205129605
 10
-619.771756429
 20
442.669170079
 10
-619.9353928969999
 20
442.125168359
 10
-620.069818238
 20
441.5744349939999
 10
-620.174708607
 20
441.0182967469999
 10
-620.2498113159999
 20
440.458093404
 10
-620.294945435
 20
439.8951745449999
 10
-620.310002233
 20
439.3308962909999
 10
-620.294945435
 20
438.766618036
 10
-620.2498113159999
 20
438.2036991769999
 10
-620.174708607
 20
437.6434958339999
 10
-620.069818238
 20
437.087357587
 10
-619.9353928969999
 20
436.5366242219999
 10
-619.771756429
 20
435.9926225019999
 10
-619.5793030469999
 20
435.4566629759999
 10
-619.358496389
 20
434.930036818
 10
-619.1098683969999
 20
434.414012716
 10
-618.8340180369999
 20
433.909833817
 10
-618.531609858
 20
433.4187147319999
 10
-618.203372386
 20
432.9418386109999
 10
-617.850096376
 20
432.4803542889999
 10
-617.4726329
 20
432.035373523
 10
-617.071891299
 20
431.6079683099999
 10
-616.6488369969999
 20
431.1991683069999
 10
-616.2044891679999
 20
430.8099583489999
 10
-615.739918285
 20
430.441276077
 10
-615.256243539
 20
430.094009678
 10
-614.7546301449999
 20
429.768995749
 10
-614.2362865349999
 20
429.467017276
 10
-613.702461443
 20
429.1888017509999
 10
-613.1544409
 20
428.9350194199999
 10
-612.593545137
 20
428.7062816669999
 10
-612.0211253999999
 20
428.5031395409999
 10
-611.438560698
 20
428.32608243
 10
-610.8472544809999
 20
428.1755368789999
 10
-610.248631258
 20
428.0518655659999
 10
-609.644133163
 20
427.9553664259999
 10
-609.0352164869999
 20
427.886271934
 10
-608.423348162
 20
427.844748544
 10
-607.810002233
 20
427.8308962909999
 10
-607.1966563030001
 20
427.844748544
 10
-606.584787978
 20
427.886271934
 10
-605.9758713019999
 20
427.9553664259999
 10
-605.3713732069999
 20
428.0518655659999
 10
-604.772749984
 20
428.1755368789999
 10
-604.181443767
 20
428.32608243
 10
-603.598879065
 20
428.5031395409999
 10
-603.026459328
 20
428.7062816669999
 10
-602.465563565
 20
428.9350194199999
 10
-601.917543022
 20
429.1888017509999
 10
-601.38371793
 20
429.467017276
 10
-600.86537432
 20
429.768995749
 10
-600.3637609259999
 20
430.094009678
 10
-599.88008618
 20
430.441276077
 10
-599.4155152969999
 20
430.8099583489999
 10
-598.9711674679999
 20
431.1991683069999
 10
-598.548113166
 20
431.6079683099999
 10
-598.1473715659999
 20
432.035373523
 10
-597.769908089
 20
432.4803542889999
 10
-597.416632079
 20
432.9418386109999
 10
-597.088394608
 20
433.4187147319999
 10
-596.785986428
 20
433.909833817
 10
-596.510136069
 20
434.414012716
 10
-596.261508076
 20
434.930036818
 10
-596.040701418
 20
435.4566629759999
 10
-595.8482480359999
 20
435.9926225019999
 10
-595.684611568
 20
436.5366242219999
 10
-595.550186228
 20
437.087357587
 10
-595.445295858
 20
437.6434958339999
 10
-595.370193149
 20
438.2036991769999
 10
-595.32505903
 20
438.766618036
 10
-595.310002233
 20
439.3308962909999
  0
LWPOLYLINE
  5
DB
330
A
100
AcDbEntity
  8
WARNER
  6
SOLID
 62
     7
100
AcDbPolyline
 90
      129
 70
     0
 43
0.0
 10
-615.0396861609999
 20
448.712265366
 10
-615.6292933569999
 20
448.4176268699999
 10
-616.205265382
 20
448.100167916
 10
-616.766597864
 20
447.760442083
 10
-617.3123119599999
 20
447.3990417819999
 10
-617.84145606
 20
447.016597217
 10
-618.353107451
 20
446.6137752899999
 10
-618.846373922
 20
446.1912784349999
 10
-619.3203953219999
 20
445.749843398
 10
-619.7743450589999
 20
445.290239946
 10
-620.2074315409999
 20
444.8132695289999
 10
-620.618899559
 20
444.319763882
 10
-621.0080316009999
 20
443.810583572
 10
-621.374149103
 20
443.286616503
 10
-621.716613634
 20
442.748776359
 10
-622.0348280109999
 20
442.198001019
 10
-622.328237335
 20
441.635250918
 10
-622.5963299619999
 20
441.0615073719999
 10
-622.8386383980001
 20
440.477770865
 10
-623.0547401069999
 20
439.8850593099999
 10
-623.244258255
 20
439.28440627
 10
-623.4068623619999
 20
438.676859153
 10
-623.5422688819999
 20
438.063477394
 10
-623.6502416939999
 20
437.4453305969999
 10
-623.730592518
 20
436.82349668
 10
-623.783181238
 20
436.199059986
 10
-623.8079161519999
 20
435.573109401
 10
-623.804754126
 20
434.946736448
 10
-623.7737006749999
 20
434.321033388
 10
-623.714809949
 20
433.697091313
 10
-623.6281846409999
 20
433.075998243
 10
-623.5139758069999
 20
432.458837234
 10
-623.372382603
 20
431.846684481
 10
-623.203651936
 20
431.2406074480001
 10
-623.0080780379999
 20
430.641663004
 10
-622.7860019469999
 20
430.0508955799999
 10
-622.537810917
 20
429.4693353469999
 10
-622.263937739
 20
428.8979964219999
 10
-621.96485999
 20
428.337875099
 10
-621.641099197
 20
427.789948108
 10
-621.2932199309999
 20
427.255170918
 10
-620.9218288169999
 20
426.734476065
 10
-620.5275734819999
 20
426.22877153
 10
-620.111141424
 20
425.738939153
 10
-619.6732588109999
 20
425.265833097
 10
-619.214689217
 20
424.810278359
 10
-618.736232288
 20
424.3730693269999
 10
-618.238722352
 20
423.9549684009999
 10
-617.7230269589999
 20
423.5567046589999
 10
-617.190045372
 20
423.178972589
 10
-616.6407069959999
 20
422.822430874
 10
-616.07596976
 20
422.4877012469999
 10
-615.496818445
 20
422.175367404
 10
-614.904262968
 20
421.885973989
 10
-614.2993366169999
 20
421.6200256419999
 10
-613.683094255
 20
421.3779861199999
 10
-613.056610478
 20
421.160277488
 10
-612.420977738
 20
420.967279384
 10
-611.777304443
 20
420.799328355
 10
-611.1267130219999
 20
420.6567172719999
 10
-610.470337967
 20
420.5396948169999
 10
-609.8093238559999
 20
420.448465054
 10
-609.1448233549999
 20
420.383187066
 10
-608.4779952119999
 20
420.3439746859999
 10
-607.810002232
 20
420.3308962909999
 10
-607.1420092530001
 20
420.3439746859999
 10
-606.4751811099999
 20
420.383187066
 10
-605.8106806089999
 20
420.448465054
 10
-605.149666498
 20
420.5396948169999
 10
-604.4932914429999
 20
420.6567172719999
 10
-603.8427000219999
 20
420.799328355
 10
-603.1990267269999
 20
420.967279384
 10
-602.5633939869999
 20
421.160277488
 10
-601.9369102099999
 20
421.3779861199999
 10
-601.3206678480001
 20
421.6200256419999
 10
-600.7157414969999
 20
421.885973989
 10
-600.12318602
 20
422.175367404
 10
-599.5440347049999
 20
422.4877012469999
 10
-598.979297469
 20
422.822430874
 10
-598.429959093
 20
423.178972589
 10
-597.896977506
 20
423.5567046589999
 10
-597.381282113
 20
423.9549684009999
 10
-596.8837721769999
 20
424.3730693269999
 10
-596.405315248
 20
424.810278359
 10
-595.9467456539999
 20
425.265833098
 10
-595.508863041
 20
425.738939153
 10
-595.0924309829999
 20
426.22877153
 10
-594.698175648
 20
426.734476065
 10
-594.326784534
 20
427.255170918
 10
-593.9789052680001
 20
427.789948108
 10
-593.655144475
 20
428.337875099
 10
-593.356066726
 20
428.8979964230001
 10
-593.082193548
 20
429.4693353469999
 10
-592.834002518
 20
430.0508955799999
 10
-592.6119264269999
 20
430.641663004
 10
-592.416352529
 20
431.240607449
 10
-592.247621863
 20
431.846684481
 10
-592.106028658
 20
432.458837234
 10
-591.991819824
 20
433.075998244
 10
-591.9051945159999
 20
433.697091313
 10
-591.8463037899999
 20
434.321033388
 10
-591.815250339
 20
434.946736449
 10
-591.812088313
 20
435.5731094019999
 10
-591.8368232269999
 20
436.1990599869999
 10
-591.8894119469999
 20
436.82349668
 10
-591.9697627709999
 20
437.4453305969999
 10
-592.077735583
 20
438.063477394
 10
-592.213142103
 20
438.676859154
 10
-592.375746211
 20
439.28440627
 10
-592.565264358
 20
439.8850593109999
 10
-592.781366068
 20
440.477770865
 10
-593.023674503
 20
441.0615073719999
 10
-593.291767131
 20
441.635250919
 10
-593.585176454
 20
442.19800102
 10
-593.903390831
 20
442.748776359
 10
-594.2458553619998
 20
443.286616503
 10
-594.611972864
 20
443.810583573
 10
-595.001104906
 20
444.319763882
 10
-595.4125729239999
 20
444.8132695289999
 10
-595.8456594069999
 20
445.290239946
 10
-596.2996091429999
 20
445.749843398
 10
-596.773630543
 20
446.1912784359999
 10
-597.266897014
 20
446.6137752899999
 10
-597.778548405
 20
447.016597217
 10
-598.3076925059999
 20
447.3990417819999
 10
-598.8534066009999
 20
447.760442083
 10
-599.4147390830001
 20
448.100167916
 10
-599.990711108
 20
448.4176268699999
 10
-600.580318304
 20
448.712265366
  0
LWPOLYLINE
  5
DC
330
A
100
AcDbEntity
  8
WARNER
  6
SOLID
 62
     7
100
AcDbPolyline
 90
      129
 70
     0
 43
0.0
 10
-595.310002233
 20
439.3308962909999
 10
-595.32505903
 20
439.8951745449999
 10
-595.370193149
 20
440.458093404
 10
-595.445295858
 20
441.0182967469999
 10
-595.550186228
 20
441.5744349939999
 10
-595.684611568
 20
442.125168359
 10
-595.8482480359999
 20
442.669170079
 10
-596.040701418
 20
443.205129605
 10
-596.261508076
 20
443.731755763
 10
-596.510136069
 20
444.2477798649999
 10
-596.785986428
 20
444.751958764
 10
-597.088394608
 20
445.243077849
 10
-597.416632079
 20
445.71995397
 10
-597.769908089
 20
446.181438292
 10
-598.1473715659999
 20
446.626419058
 10
-598.548113166
 20
447.0538242709999
 10
-598.9711674679999
 20
447.462624274
 10
-599.4155152969999
 20
447.851834232
 10
-599.88008618
 20
448.2205165039999
 10
-600.3637609259999
 20
448.567782903
 10
-600.86537432
 20
448.8927968319999
 10
-601.38371793
 20
449.1947753059999
 10
-601.917543022
 20
449.472990831
 10
-602.465563565
 20
449.726773161
 10
-603.026459328
 20
449.955510914
 10
-603.598879065
 20
450.15865304
 10
-604.181443767
 20
450.3357101509999
 10
-604.772749984
 20
450.486255702
 10
-605.3713732069999
 20
450.609927015
 10
-605.9758713019999
 20
450.706426155
 10
-606.584787978
 20
450.7755206469999
 10
-607.1966563030001
 20
450.8170440369999
 10
-607.810002233
 20
450.830896291
 10
-608.423348162
 20
450.8170440369999
 10
-609.0352164869999
 20
450.7755206469999
 10
-609.644133163
 20
450.706426155
 10
-610.248631258
 20
450.609927015
 10
-610.8472544809999
 20
450.486255702
 10
-611.438560698
 20
450.3357101509999
 10
-612.0211253999999
 20
450.15865304
 10
-612.593545137
 20
449.955510914
 10
-613.1544409
 20
449.726773161
 10
-613.702461443
 20
449.472990831
 10
-614.2362865349999
 20
449.1947753059999
 10
-614.7546301449999
 20
448.8927968319999
 10
-615.256243539
 20
448.567782903
 10
-615.739918285
 20
448.2205165039999
 10
-616.2044891679999
 20
447.851834232
 10
-616.6488369969999
 20
447.462624274
 10
-617.071891299
 20
447.0538242709999
 10
-617.4726329
 20
446.626419058
 10
-617.850096376
 20
446.181438292
 10
-618.203372386
 20
445.71995397
 10
-618.531609858
 20
445.243077849
 10
-618.8340180369999
 20
444.751958764
 10
-619.1098683969999
 20
444.2477798649999
 10
-619.358496389
 20
443.731755763
 10
-619.5793030469999
 20
443.205129605
 10
-619.771756429
 20
442.669170079
 10
-619.9353928969999
 20
442.125168359
 10
-620.069818238
 20
441.5744349939999
 10
-620.174708607
 20
441.0182967469999
 10
-620.2498113159999
 20
440.458093404
 10
-620.294945435
 20
439.8951745449999
 10
-620.310002233
 20
439.3308962909999
 10
-620.294945435
 20
438.766618036
 10
-620.2498113159999
 20
438.2036991769999
 10
-620.174708607
 20
437.6434958339999
 10
-620.069818238
 20
437.087357587
 10
-619.9353928969999
 20
436.5366242219999
 10
-619.771756429
 20
435.9926225019999
 10
-619.5793030469999
 20
435.4566629759999
 10
-619.358496389
 20
434.930036818
 10
-619.1098683969999
 20
434.414012716
 10
-618.8340180369999
 20
433.909833817
 10
-618.531609858
 20
433.4187147319999
 10
-618.203372386
 20
432.9418386109999
 10
-617.850096376
 20
432.4803542889999
 10
-617.4726329
 20
432.035373523
 10
-617.071891299
 20
431.6079683099999
 10
-616.6488369969999
 20
431.1991683069999
 10
-616.2044891679999
 20
430.8099583489999
 10
-615.739918285
 20
430.441276077
 10
-615.256243539
 20
430.094009678
 10
-614.7546301449999
 20
429.768995749
 10
-614.2362865349999
 20
429.467017276
 10
-613.702461443
 20
429.1888017509999
 10
-613.1544409
 20
428.9350194199999
 10
-612.593545137
 20
428.7062816669999
 10
-612.0211253999999
 20
428.5031395409999
 10
-611.438560698
 20
428.32608243
 10
-610.8472544809999
 20
428.1755368789999
 10
-610.248631258
 20
428.0518655659999
 10
-609.644133163
 20
427.9553664259999
 10
-609.0352164869999
 20
427.886271934
 10
-608.423348162
 20
427.844748544
 10
-607.810002233
 20
427.8308962909999
 10
-607.1966563030001
 20
427.844748544
 10
-606.584787978
 20
427.886271934
 10
-605.9758713019999
 20
427.9553664259999
 10
-605.3713732069999
 20
428.0518655659999
 10
-604.772749984
 20
428.1755368789999
 10
-604.181443767
 20
428.32608243
 10
-603.598879065
 20
428.5031395409999
 10
-603.026459328
 20
428.7062816669999
 10
-602.465563565
 20
428.9350194199999
 10
-601.917543022
 20
429.1888017509999
 10
-601.38371793
 20
429.467017276
 10
-600.86537432
 20
429.768995749
 10
-600.3637609259999
 20
430.094009678
 10
-599.88008618
 20
430.441276077
 10
-599.4155152969999
 20
430.8099583489999
 10
-598.9711674679999
 20
431.1991683069999
 10
-598.548113166
 20
431.6079683099999
 10
-598.1473715659999
 20
432.035373523
 10
-597.769908089
 20
432.4803542889999
 10
-597.416632079
 20
432.9418386109999
 10
-597.088394608
 20
433.4187147319999
 10
-596.785986428
 20
433.909833817
 10
-596.510136069
 20
434.414012716
 10
-596.261508076
 20
434.930036818
 10
-596.040701418
 20
435.4566629759999
 10
-595.8482480359999
 20
435.9926225019999
 10
-595.684611568
 20
436.5366242219999
 10
-595.550186228
 20
437.087357587
 10
-595.445295858
 20
437.6434958339999
 10
-595.370193149
 20
438.2036991769999
 10
-595.32505903
 20
438.766618036
 10
-595.310002233
 20
439.3308962909999
  0
LINE
  5
DD
330
A
100
AcDbEntity
  8
WARNER
  6
SOLID
 62
     7
100
AcDbLine
 10
-612.809986974
 20
466.3308934289999
 30
0.0
 11
-668.6102388430001
 21
466.3308934289999
 31
0.0
  0
LINE
  5
DE
330
A
100
AcDbEntity
  8
WARNER
  6
SOLID
 62
     7
100
AcDbLine
 10
-668.9305789769999
 20
421.3308395469999
 30
0.0
 11
-678.609944249
 21
421.3308395469999
 31
0.0
  0
LINE
  5
DF
330
A
100
AcDbEntity
  8
WARNER
  6
SOLID
 62
     7
100
AcDbLine
 10
-693.6099442489998
 20
424.3310460169999
 30
0.0
 11
-693.6099442489998
 21
415.3310460169999
 31
0.0
  0
LINE
  5
E0
330
A
100
AcDbEntity
  8
WARNER
  6
SOLID
 62
     7
100
AcDbLine
 10
-693.6099442489998
 20
424.3310460169999
 30
0.0
 11
-692.6099442489999
 21
425.3310460169999
 31
0.0
  0
LINE
  5
E1
330
A
100
AcDbEntity
  8
WARNER
  6
SOLID
 62
     7
100
AcDbLine
 10
-679.609944249
 20
425.3310460169999
 30
0.0
 11
-678.609944249
 21
424.3310460169999
 31
0.0
  0
LINE
  5
E2
330
A
100
AcDbEntity
  8
WARNER
  6
SOLID
 62
     7
100
AcDbLine
 10
-679.609944249
 20
425.3310460169999
 30
0.0
 11
-692.6099442489999
 21
425.3310460169999
 31
0.0
  0
LINE
  5
E3
330
A
100
AcDbEntity
  8
WARNER
  6
SOLID
 62
     7
100
AcDbLine
 10
-730.8099869739999
 20
48.09707379399999
 30
0.0
 11
-767.8099869739999
 21
48.09707379399999
 31
0.0
  0
ARC
  5
E4
330
A
100
AcDbEntity
  8
WARNER
  6
SOLID
 62
     7
100
AcDbCircle
 10
-730.8099869739999
 20
51.09707379399999
 30
0.0
 40
3.0
100
AcDbArc
 50
270.0
 51
0.0
  0
LINE
  5
E5
330
A
100
AcDbEntity
  8
WARNER
  6
SOLID
 62
     7
100
AcDbLine
 10
-507.8099869739999
 20
48.09707379399999
 30
0.0
 11
-544.809986974
 21
48.09707379399999
 31
0.0
  0
ARC
  5
E6
330
A
100
AcDbEntity
  8
WARNER
  6
SOLID
 62
     7
100
AcDbCircle
 10
-544.809986974
 20
51.09707379399999
 30
0.0
 40
3.0
100
AcDbArc
 50
180.0
 51
270.0
  0
LINE
  5
E7
330
A
100
AcDbEntity
  8
WARNER
  6
SOLID
 62
     7
100
AcDbLine
 10
-669.529030137
 20
409.330839547
 30
0.0
 11
-678.609944249
 21
409.330839547
 31
0.0
  0
LINE
  5
E8
330
A
100
AcDbEntity
  8
WARNER
  6
SOLID
 62
     7
100
AcDbLine
 10
-497.809986974
 20
-212.141852318
 30
0.0
 11
-507.8099869739999
 21
-212.141852318
 31
0.0
  0
LINE
  5
E9
330
A
100
AcDbEntity
  8
WARNER
  6
SOLID
 62
     7
100
AcDbLine
 10
-497.809986974
 20
-162.141852318
 30
0.0
 11
-507.8099869739999
 21
-162.141852318
 31
0.0
  0
LINE
  5
EA
330
A
100
AcDbEntity
  8
WARNER
  6
CENTER
 62
     7
100
AcDbLine
 10
-416.809986974
 20
-375.259980583
 30
0.0
 11
-416.809986974
 21
-187.141852318
 31
0.0
  0
LINE
  5
EB
330
A
100
AcDbEntity
  8
WARNER
  6
SOLID
 62
     7
100
AcDbLine
 10
-678.609944249
 20
409.330839547
 30
0.0
 11
-678.609944249
 21
406.3310460169999
 31
0.0
  0
LINE
  5
EC
330
A
100
AcDbEntity
  8
WARNER
  6
CENTER
 62
     7
100
AcDbLine
 10
-434.809986974
 20
-376.2067342869999
 30
0.0
 11
-434.809986974
 21
-187.141852318
 31
0.0
  0
LINE
  5
ED
330
A
100
AcDbEntity
  8
WARNER
  6
SOLID
 62
     7
100
AcDbLine
 10
-679.609944249
 20
405.3310460169999
 30
0.0
 11
-678.609944249
 21
406.3310460169999
 31
0.0
  0
LINE
  5
EE
330
A
100
AcDbEntity
  8
WARNER
  6
SOLID
 62
     7
100
AcDbLine
 10
-679.609944249
 20
405.3310460169999
 30
0.0
 11
-692.6099442489999
 21
405.3310460169999
 31
0.0
  0
LINE
  5
EF
330
A
100
AcDbEntity
  8
WARNER
  6
CENTER
 62
     7
100
AcDbLine
 10
-452.809986974
 20
-377.153487991
 30
0.0
 11
-452.809986974
 21
-187.141852318
 31
0.0
  0
LWPOLYLINE
  5
F0
330
A
100
AcDbEntity
  8
WARNER
  6
SOLID
 62
     7
100
AcDbPolyline
 90
      109
 70
     0
 43
0.0
 10
-612.809986974
 20
496.680251207
 10
-619.4573410090001
 20
496.8936583749999
 10
-626.131587931
 20
497.0414888
 10
-632.8229476919999
 20
497.123525859
 10
-639.5216151649999
 20
497.139649339
 10
-646.2177745159999
 20
497.089835615
 10
-652.9016135859999
 20
496.974157681
 10
-659.563338269
 20
496.792785043
 10
-666.1931868659999
 20
496.5459834749999
 10
-672.7814443859999
 20
496.234114626
 10
-679.318456781
 20
495.8576354889999
 10
-685.794645099
 20
495.4170977359999
 10
-692.200519513
 20
494.913146904
 10
-698.526693231
 20
494.346521453
 10
-704.763896248
 20
493.718051683
 10
-710.9029889339999
 20
493.028658517
 10
-716.9349754219999
 20
492.279352151
 10
-722.8510167939999
 20
491.471230574
 10
-728.64244403
 20
490.6054779609999
 10
-734.3007707119999
 20
489.683362934
 10
-739.817705461
 20
488.7062367069999
 10
-742.5206161310001
 20
488.197488747
 10
-745.1851640839999
 20
487.675531104
 10
-747.810373112
 20
487.140555008
 10
-750.395281421
 20
486.592756459
 10
-752.9389419819999
 20
486.0323361519999
 10
-755.440422874
 20
485.4594994069999
 10
-757.898807635
 20
484.874456095
 10
-760.313195588
 20
484.2774205569999
 10
-762.682702177
 20
483.668611528
 10
-765.006459288
 20
483.0482520569999
 10
-767.2836155689999
 20
482.416569424
 10
-769.51333674
 20
481.7737950589999
 10
-771.6948059019999
 20
481.120164453
 10
-773.8272238310001
 20
480.455917077
 10
-775.909809277
 20
479.78129629
 10
-777.9417992449999
 20
479.096549253
 10
-779.922449276
 20
478.4019268339999
 10
-781.851033723
 20
477.697683523
 10
-783.726846011
 20
476.9840773319999
 10
-785.5491989019999
 20
476.2613697049999
 10
-787.317424743
 20
475.529825418
 10
-789.03087571
 20
474.7897124869999
 10
-790.6889240479999
 20
474.0413020669999
 10
-792.290962301
 20
473.284868351
 10
-793.83640353
 20
472.520688473
 10
-795.3246815339999
 20
471.749042406
 10
-796.755251056
 20
470.970212855
 10
-798.127587977
 20
470.1844851609999
 10
-799.4411895179999
 20
469.392147189
 10
-800.6955744149999
 20
468.5934892269999
 10
-801.8902831010001
 20
467.7888038779999
 10
-803.0248778709999
 20
466.9783859559999
 10
-804.098943045
 20
466.16253237
 10
-805.11208512
 20
465.3415420249999
 10
-806.0639329109999
 20
464.5157157059999
 10
-806.954137692
 20
463.685355969
 10
-807.782373318
 20
462.850767034
 10
-808.5483363499999
 20
462.012254667
 10
-809.2517461639998
 20
461.170126074
 10
-809.89234505
 20
460.324689783
 10
-810.4698983149999
 20
459.476255537
 10
-810.984194361
 20
458.625134175
 10
-811.435044765
 20
457.7716375219999
 10
-811.8222843489999
 20
456.916078272
 10
-812.1457712419999
 20
456.058769876
 10
-812.405386928
 20
455.200026425
 10
-812.601036292
 20
454.3401625349999
 10
-812.7326476530001
 20
453.479493234
 10
-812.8001727939999
 20
452.618333845
 10
-812.803586975
 20
451.7569998699999
 10
-812.7428889469999
 20
450.895806874
 10
-812.618100945
 20
450.0350703709999
 10
-812.4292686889999
 20
449.17510571
 10
-812.1764613619999
 20
448.316227953
 10
-811.859771583
 20
447.4587517679999
 10
-811.4793153789999
 20
446.6029913069999
 10
-811.035232136
 20
445.749260093
 10
-810.5276845530001
 20
444.897870908
 10
-809.95685858
 20
444.0491356739999
 10
-809.322963348
 20
443.20336534
 10
-808.6262310989999
 20
442.3608697719999
 10
-807.8669170919999
 20
441.5219576330001
 10
-807.0452995169999
 20
440.686936274
 10
-806.1616793889999
 20
439.8561116219999
 10
-805.216380439
 20
439.029788064
 10
-804.209748995
 20
438.20826834
 10
-803.1421538549999
 20
437.391853429
 10
-802.0139861539998
 20
436.5808424399999
 10
-800.825659216
 20
435.775532503
 10
-799.577608407
 20
434.9762186569999
 10
-798.2702909749999
 20
434.1831937469999
 10
-796.9041858810001
 20
433.3967483119999
 10
-795.4797936210001
 20
432.6171704819999
 10
-793.99763605
 20
431.844745868
 10
-792.458256184
 20
431.079757465
 10
-790.8622180039999
 20
430.3224855389999
 10
-789.210106248
 20
429.573207532
 10
-787.5025261989999
 20
428.832197955
 10
-785.74010346
 20
428.0997282919999
 10
-783.92348373
 20
427.376066896
 10
-782.0533325599999
 20
426.661478895
 10
-780.1303351169999
 20
425.9562260919999
 10
-778.155195925
 20
425.260566869
 10
-776.128638616
 20
424.5747560929999
 10
-774.051405656
 20
423.899045026
 10
-771.9242580789999
 20
423.2336812249999
 10
-769.7479752060001
 20
422.5789084609999
 10
-767.523354359
 20
421.934966621
  0
LWPOLYLINE
  5
F1
330
A
100
AcDbEntity
  8
WARNER
  6
SOLID
 62
     7
100
AcDbPolyline
 90
       48
 70
     0
 43
0.0
 10
-657.8099869719999
 20
361.704751878
 10
-662.0487367299999
 20
361.4547260530001
 10
-666.241695253
 20
361.157046425
 10
-670.380941309
 20
360.812275363
 10
-674.45865514
 20
360.4210642
 10
-678.4671332319999
 20
359.984152001
 10
-682.39880287
 20
359.502364172
 10
-686.246236443
 20
358.976610891
 10
-690.0021654769999
 20
358.407885401
 10
-693.659494365
 20
357.797262121
 10
-697.211313776
 20
357.145894628
 10
-700.650913701
 20
356.455013466
 10
-703.971796136
 20
355.725923832
 10
-707.167687353
 20
354.960003103
 10
-710.232549756
 20
354.1586982380001
 10
-713.1605932839999
 20
353.323523041
 10
-715.9462863519999
 20
352.456055303
 10
-718.5843662989999
 20
351.557933824
 10
-719.8464827619999
 20
351.097905977
 10
-721.0698493310001
 20
350.630855311
 10
-722.253888149
 20
350.157002436
 10
-723.398039936
 20
349.676571177
 10
-724.501764253
 20
349.189788466
 10
-725.564539756
 20
348.696884233
 10
-726.5858644429999
 20
348.198091302
 10
-727.565255894
 20
347.693645278
 10
-728.502251491
 20
347.183784434
 10
-729.3964086469999
 20
346.668749605
 10
-730.247305007
 20
346.148784065
 10
-731.05453865
 20
345.624133421
 10
-731.8177282789999
 20
345.095045491
 10
-732.5365134030001
 20
344.561770189
 10
-733.2105545039999
 20
344.024559408
 10
-733.8395331989999
 20
343.483666899
 10
-734.42315239
 20
342.939348152
 10
-734.9611364039999
 20
342.391860276
 10
-735.4532311269999
 20
341.841461876
 10
-735.899204116
 20
341.288412933
 10
-736.2988447169999
 20
340.732974679
 10
-736.6519641589999
 20
340.175409475
 10
-736.9583956469999
 20
339.615980687
 10
-737.217994439
 20
339.054952561
 10
-737.430637912
 20
338.492590097
 10
-737.596225625
 20
337.929158928
 10
-737.714679363
 20
337.36492519
 10
-737.7859431739999
 20
336.800155398
 10
-737.809983396
 20
336.235116322
 10
-737.786788675
 20
335.670074856
  0
LINE
  5
F2
330
A
100
AcDbEntity
  8
WARNER
  6
SOLID
 62
     7
100
AcDbLine
 10
-737.809985288
 20
359.601613394
 30
0.0
 11
-737.809985288
 21
336.230058643
 31
0.0
  0
LWPOLYLINE
  5
F3
330
A
100
AcDbEntity
  8
WARNER
  6
SOLID
 62
     7
100
AcDbPolyline
 90
       30
 70
     0
 43
0.0
 10
-672.196246104
 20
437.919297138
 10
-677.060411009
 20
437.418282765
 10
-681.817134366
 20
436.851809129
 10
-686.453395433
 20
436.2214268569999
 10
-688.722372833
 20
435.882802515
 10
-690.95650321
 20
435.528861516
 10
-693.1542574129999
 20
435.159846117
 10
-695.3141311869999
 20
434.776008889
 10
-697.4346462039999
 20
434.3776125519999
 10
-699.514351076
 20
433.9649297869999
 10
-701.551822348
 20
433.538243055
 10
-703.5456654709999
 20
433.0978444019999
 10
-705.494515758
 20
432.6440352609999
 10
-707.397039316
 20
432.17712624
 10
-709.251933961
 20
431.6974369159999
 10
-711.057930111
 20
431.2052956119999
 10
-712.813791649
 20
430.701039176
 10
-714.5183167739999
 20
430.1850127449999
 10
-716.1703388230001
 20
429.6575695149999
 10
-717.7687270679999
 20
429.1190704949999
 10
-719.3123874919999
 20
428.5698842599999
 10
-720.8002635339998
 20
428.0103867009999
 10
-722.2313368169999
 20
427.440960768
 10
-723.604627841
 20
426.861996203
 10
-724.9191966569999
 20
426.2738892799999
 10
-726.1741435060001
 20
425.677042529
 10
-727.36860944
 20
425.0718644619999
 10
-728.501776906
 20
424.458769294
 10
-729.572870305
 20
423.8381766579999
 10
-730.581156528
 20
423.21051132
  0
LINE
  5
F4
330
A
100
AcDbEntity
  8
WARNER
  6
SOLID
 62
     7
100
AcDbLine
 10
-693.6099442489998
 20
406.3310460169999
 30
0.0
 11
-692.6099442489999
 21
405.3310460169999
 31
0.0
  0
LINE
  5
F5
330
A
100
AcDbEntity
  8
WARNER
  6
SOLID
 62
     7
100
AcDbLine
 10
-693.6099442489998
 20
406.3310460169999
 30
0.0
 11
-693.6099442489998
 21
415.3310460169999
 31
0.0
  0
LWPOLYLINE
  5
F6
330
A
100
AcDbEntity
  8
WARNER
  6
SOLID
 62
     7
100
AcDbPolyline
 90
       76
 70
     0
 43
0.0
 10
-621.306654575
 20
545.530896856
 10
-625.8447621380001
 20
545.626138093
 10
-630.3909695639999
 20
545.690987853
 10
-634.942199294
 20
545.725402236
 10
-639.495370374
 20
545.7293579459999
 10
-644.047400531
 20
545.7028523039999
 10
-648.595208268
 20
545.645903253
 10
-653.135714945
 20
545.558549345
 10
-657.665846864
 20
545.440849715
 10
-662.1825373509999
 20
545.292884038
 10
-666.6827288319999
 20
545.1147524819999
 10
-671.163374899
 20
544.906575631
 10
-675.6214423789999
 20
544.668494411
 10
-680.053913381
 20
544.400669992
 10
-684.4577873419999
 20
544.1032836769998
 10
-688.8300830589998
 20
543.7765367809999
 10
-693.1678407039998
 20
543.4206504969999
 10
-697.4681238319999
 20
543.0358657419999
 10
-701.728021363
 20
542.622442995
 10
-705.94464956
 20
542.180662124
 10
-710.1151539739999
 20
541.710822192
 10
-714.2367113799999
 20
541.213241258
 10
-718.306531691
 20
540.688256158
 10
-722.321859838
 20
540.136222283
 10
-726.279977645
 20
539.557513331
 10
-730.1782056630001
 20
538.952521059
 10
-734.0139049839999
 20
538.321655018
 10
-737.784479031
 20
537.6653422719999
 10
-741.4873753119999
 20
536.984027113
 10
-745.120087152
 20
536.2781707559999
 10
-748.680155383
 20
535.5482510319999
 10
-752.165170018
 20
534.79476206
 10
-755.572771874
 20
534.018213914
 10
-758.9006541739999
 20
533.21913228
 10
-762.146564107
 20
532.3980580949999
 10
-765.308304353
 20
531.5555471869999
 10
-768.3837345710001
 20
530.6921698919999
 10
-771.370772849
 20
529.808510675
 10
-774.2673971080001
 20
528.905167729
 10
-777.0716464789999
 20
527.982752573
 10
-779.781622624
 20
527.0418896349999
 10
-782.3954910239999
 20
526.083215833
 10
-784.91148222
 20
525.107380142
 10
-787.32789301
 20
524.1150431539999
 10
-789.643087605
 20
523.1068766309999
 10
-791.855498733
 20
522.083563053
 10
-793.963628701
 20
521.045795151
 10
-795.9660504110001
 20
519.994275444
 10
-797.861408322
 20
518.9297157569999
 10
-799.648419371
 20
517.852836745
 10
-801.3258738399999
 20
516.7643674019999
 10
-802.8926361760001
 20
515.665044566
 10
-804.34764576
 20
514.555612426
 10
-805.689917621
 20
513.4368220099999
 10
-806.318489953
 20
512.874153893
 10
-806.9185431079999
 20
512.309430686
 10
-807.489975528
 20
511.7427479659999
 10
-808.032690503
 20
511.174201641
 10
-808.5465961789999
 20
510.6038879339999
 10
-809.0316055829999
 20
510.031903368
 10
-809.4876366280001
 20
509.458344748
 10
-809.9146121329999
 20
508.8833091459999
 10
-810.3124598349999
 20
508.306893885
 10
-810.681112401
 20
507.729196518
 10
-811.020507437
 20
507.150314819
 10
-811.330587504
 20
506.570346759
 10
-811.6113001210001
 20
505.989390497
 10
-811.86259778
 20
505.407544354
 10
-812.084437949
 20
504.8249068069999
 10
-812.2767830839999
 20
504.2415764619999
 10
-812.439600631
 20
503.657652046
 10
-812.5728630339999
 20
503.0732323849999
 10
-812.676547739
 20
502.488416389
 10
-812.750637198
 20
501.903303035
 10
-812.795118872
 20
501.31799135
 10
-812.809985233
 20
500.732580395
  0
LWPOLYLINE
  5
F7
330
A
100
AcDbEntity
  8
WARNER
  6
SOLID
 62
     7
100
AcDbPolyline
 90
       68
 70
     0
 43
0.0
 10
857.2776895389999
 20
-183.744572695
 10
857.2922906129999
 20
-183.709266586
 10
857.310576058
 20
-183.661300588
 10
857.3408418989998
 20
-183.574104165
 10
857.3691977210001
 20
-183.482476323
 10
857.3959876580001
 20
-183.386069487
 10
857.4215558430001
 20
-183.284536081
 10
857.4462464099999
 20
-183.177528529
 10
857.470403493
 20
-183.064699255
 10
857.494371225
 20
-182.945700684
 10
857.5106378980001
 20
-182.861190619
 10
857.526838277
 20
-182.77382577
 10
857.542975191
 20
-182.683734921
 10
857.5590514679999
 20
-182.591046855
 10
857.5750699369999
 20
-182.495890354
 10
857.5910334260001
 20
-182.3983942009999
 10
857.6077978269999
 20
-182.293254943
 10
857.624579554
 20
-182.185342123
 10
857.641369551
 20
-182.074899156
 10
857.658158757
 20
-181.962169452
 10
857.6749381169999
 20
-181.847396426
 10
857.69169857
 20
-181.730823489
 10
857.7084310589999
 20
-181.612694054
 10
857.725126525
 20
-181.493251534
 10
857.7417759110002
 20
-181.372739342
 10
857.7583624449999
 20
-181.25148099
 10
857.774972544
 20
-181.129062732
 10
857.7915938919998
 20
-181.005772163
 10
857.808214169
 20
-180.88189688
 10
857.824821057
 20
-180.757724479
 10
857.8414022389999
 20
-180.633542556
 10
857.856481355
 20
-180.52060656
 10
857.8715965519998
 20
-180.4075576329999
 10
857.8867369999999
 20
-180.294625556
 10
857.901891866
 20
-180.182040112
 10
857.9170503189999
 20
-180.070031081
 10
857.9322015269999
 20
-179.958828245
 10
857.9473346569999
 20
-179.848661384
 10
857.962438879
 20
-179.739760282
 10
857.9775033589999
 20
-179.632354718
 10
857.9920712869999
 20
-179.529798849
 10
858.0066686489999
 20
-179.428456311
 10
858.0212818939999
 20
-179.328536651
 10
858.0358974660001
 20
-179.230249415
 10
858.0505018129999
 20
-179.133804148
 10
858.06508138
 20
-179.039410398
 10
858.0796226130001
 20
-178.947277708
 10
858.094111958
 20
-178.857615627
 10
858.108535863
 20
-178.770633699
 10
858.124126693
 20
-178.679389319
 10
858.1397190669999
 20
-178.591134539
 10
858.155266055
 20
-178.506176667
 10
858.1707207310001
 20
-178.424823012
 10
858.1860361639998
 20
-178.347380882
 10
858.2011654269999
 20
-178.274157585
 10
858.2160615899999
 20
-178.20546043
 10
858.2306777239999
 20
-178.141596725
 10
858.2435212460001
 20
-178.08857044
 10
858.25603626
 20
-178.039710635
 10
858.268081874
 20
-177.995398029
 10
858.2795171910001
 20
-177.956013342
 10
858.2885345960001
 20
-177.927057879
 10
858.296838677
 20
-177.902087689
 10
858.304145421
 20
-177.881530355
 10
858.310170817
 20
-177.865813459
 10
858.3137036910001
 20
-177.857375799
 10
858.3160013969999
 20
-177.85226724
 10
858.5622075039999
 20
-177.314552753
210
0.0
220
0.0
230
-1.0
  0
LWPOLYLINE
  5
F8
330
A
100
AcDbEntity
  8
WARNER
  6
SOLID
 62
     7
100
AcDbPolyline
 90
       49
 70
     0
 43
0.0
 10
858.866428323
 20
-178.547765256
 10
858.8547877279999
 20
-178.479150751
 10
858.8389670899999
 20
-178.388640996
 10
858.8230691239999
 20
-178.300582329
 10
858.8070788780001
 20
-178.215049847
 10
858.7909813999999
 20
-178.132118652
 10
858.7747617389998
 20
-178.051863843
 10
858.7584049410001
 20
-177.97436052
 10
858.7418960569999
 20
-177.899683783
 10
858.7252201330001
 20
-177.827908732
 10
858.7068734129999
 20
-177.752140219
 10
858.688519548
 20
-177.679734412
 10
858.6696679699999
 20
-177.610225868
 10
858.6498281089999
 20
-177.543149141
 10
858.628509398
 20
-177.478038787
 10
858.605221266
 20
-177.414429361
 10
858.5794731469999
 20
-177.3518554209999
 10
858.5507744699999
 20
-177.28985152
 10
858.518634668
 20
-177.227952215
 10
858.490811268
 20
-177.180027057
 10
858.4588125069998
 20
-177.131321508
 10
858.4216750989998
 20
-177.081989481
 10
858.3893673549999
 20
-177.04426495
 10
858.353036924
 20
-177.006740933
 10
858.312572868
 20
-176.970143796
 10
858.2678642489998
 20
-176.935199907
 10
858.228066042
 20
-176.908447983
 10
858.1853290859999
 20
-176.883687928
 10
858.1400296160001
 20
-176.86132536
 10
858.092543867
 20
-176.8417658999999
 10
858.0432480739998
 20
-176.825415168
 10
857.9925184710001
 20
-176.812678784
 10
857.9416403400001
 20
-176.803964402
 10
857.8898681069999
 20
-176.798978575
 10
857.837711584
 20
-176.797744069
 10
857.7856805819999
 20
-176.800283651
 10
857.734284912
 20
-176.806620086
 10
857.6845384
 20
-176.816572888
 10
857.635893966
 20
-176.829985945
 10
857.5887506519999
 20
-176.8465574309999
 10
857.5435074999999
 20
-176.865985523
 10
857.50056355
 20
-176.887968396
 10
857.45945023
 20
-176.912645676
 10
857.4209140549999
 20
-176.939267633
 10
857.385043016
 20
-176.967384533
 10
857.3519251069999
 20
-176.99654664
 10
857.3216483199999
 20
-177.026304217
 10
857.2914718739999
 20
-177.059314242
 10
857.277688785
 20
-177.076043392
210
0.0
220
0.0
230
-1.0
  0
LINE
  5
F9
330
A
100
AcDbEntity
  8
WARNER
  6
SOLID
 62
     7
100
AcDbLine
 10
-751.809635887
 20
-329.641852318
 30
0.0
 11
-757.8099869739999
 21
-329.641852318
 31
0.0
  0
LINE
  5
FA
330
A
100
AcDbEntity
  8
WARNER
  6
SOLID
 62
     7
100
AcDbLine
 10
-747.8099869739999
 20
-329.641852318
 30
0.0
 11
-747.8099869739999
 21
-187.141852318
 31
0.0
  0
LINE
  5
FB
330
A
100
AcDbEntity
  8
WARNER
  6
SOLID
 62
     7
100
AcDbLine
 10
-757.8099869739999
 20
-329.641852318
 30
0.0
 11
-757.8099869739999
 21
-187.141852318
 31
0.0
  0
LWPOLYLINE
  5
FC
330
A
100
AcDbEntity
  8
WARNER
  6
SOLID
 62
     7
100
AcDbPolyline
 90
       51
 70
     0
 43
0.0
 10
-637.809986974
 20
478.141801807
 10
-642.716754559
 20
478.1104836439999
 10
-647.6117013069999
 20
478.0166046489999
 10
-652.48303486
 20
477.860390984
 10
-657.31901975
 20
477.6422189799999
 10
-662.1080056639999
 20
477.362614234
 10
-666.8384555149999
 20
477.022250338
 10
-671.498973234
 20
476.621947259
 10
-676.078331225
 20
476.162669361
 10
-680.565497414
 20
475.6455230859999
 10
-684.9496618219999
 20
475.071754283
 10
-689.220262613
 20
474.442745214
 10
-693.3670115349999
 20
473.7600112149999
 10
-697.379918707
 20
473.025197053
 10
-701.2493166819999
 20
472.240072959
 10
-703.127272559
 20
471.8292311489999
 10
-704.965883741
 20
471.4065303659999
 10
-706.7640427189999
 20
470.9722252309999
 10
-708.5206663489999
 20
470.5265773519999
 10
-710.234696506
 20
470.0698551719999
 10
-711.9051007219999
 20
469.6023338009999
 10
-713.530872808
 20
469.124294859
 10
-715.11103346
 20
468.636026296
 10
-716.6446308489999
 20
468.13782223
 10
-718.130741191
 20
467.629982758
 10
-719.568469311
 20
467.112813784
 10
-720.9569491739999
 20
466.586626832
 10
-722.2953444119999
 20
466.0517388569999
 10
-723.582848825
 20
465.508472055
 10
-724.8186868689999
 20
464.9571536709999
 10
-726.002114122
 20
464.3981157969999
 10
-727.132417731
 20
463.831695178
 10
-728.2089168429999
 20
463.258233003
 10
-729.230963015
 20
462.6780747059999
 10
-730.197940605
 20
462.091569751
 10
-731.1092671419999
 20
461.499071428
 10
-731.9643936769999
 20
460.900936635
 10
-732.7628051139998
 20
460.2975256669999
 10
-733.504020518
 20
459.689201995
 10
-734.187593411
 20
459.0763320509999
 10
-734.8131120319999
 20
458.4592850049999
 10
-735.3801995939999
 20
457.838432544
 10
-735.888514502
 20
457.214148645
 10
-736.3377505689999
 20
456.586809353
 10
-736.72763719
 20
455.9567925549999
 10
-737.057939513
 20
455.324477749
 10
-737.3284585760001
 20
454.690245818
 10
-737.5390314269999
 20
454.0544788
 10
-737.689531227
 20
453.4175596559999
 10
-737.7798673189999
 20
452.7798720429999
 10
-737.809985288
 20
452.1418000809999
  0
LINE
  5
FD
330
A
100
AcDbEntity
  8
WARNER
  6
SOLID
 62
     7
100
AcDbLine
 10
-678.609944249
 20
406.3310460169999
 30
0.0
 11
-678.609944249
 21
424.3310460169999
 31
0.0
  0
LINE
  5
FE
330
A
100
AcDbEntity
  8
WARNER
  6
SOLID
 62
     7
100
AcDbLine
 10
-757.8099869739999
 20
-44.64185231800001
 30
0.0
 11
-757.8099869739999
 21
-187.141852318
 31
0.0
  0
LINE
  5
FF
330
A
100
AcDbEntity
  8
WARNER
  6
SOLID
 62
     7
100
AcDbLine
 10
-751.809635887
 20
-44.64185231800001
 30
0.0
 11
-757.8099869739999
 21
-44.64185231800001
 31
0.0
  0
LINE
  5
100
330
A
100
AcDbEntity
  8
WARNER
  6
SOLID
 62
     7
100
AcDbLine
 10
-747.8099869739999
 20
-44.64185231800001
 30
0.0
 11
-747.8099869739999
 21
-187.141852318
 31
0.0
  0
LINE
  5
101
330
A
100
AcDbEntity
  8
WARNER
  6
CENTER
 62
     7
100
AcDbLine
 10
-637.809986974
 20
590.950533103
 30
0.0
 11
-637.809986974
 21
135.120633387
 31
0.0
  0
LINE
  5
102
330
A
100
AcDbEntity
  8
WARNER
  6
SOLID
 62
     7
100
AcDbLine
 10
-462.809985288
 20
500.732568083
 30
0.0
 11
-462.809985288
 21
452.141801807
 31
0.0
  0
ARC
  5
103
330
A
100
AcDbEntity
  8
WARNER
  6
SOLID
 62
     7
100
AcDbCircle
 10
-512.809986974
 20
-267.141852318
 30
0.0
 40
5.0
100
AcDbArc
 50
270.0
 51
0.0
  0
LINE
  5
104
330
A
100
AcDbEntity
  8
WARNER
  6
SOLID
 62
     7
100
AcDbLine
 10
-812.809985288
 20
500.7327034
 30
0.0
 11
-812.809985288
 21
452.141801803
 31
0.0
  0
ARC
  5
105
330
A
100
AcDbEntity
  8
WARNER
  6
SOLID
 62
     7
100
AcDbCircle
 10
-512.809986974
 20
-107.141852318
 30
0.0
 40
5.0
100
AcDbArc
 50
0.0
 51
90.0
  0
LINE
  5
106
330
A
100
AcDbEntity
  8
WARNER
  6
CENTER
 62
     7
100
AcDbLine
 10
-470.809986974
 20
-376.2067342869999
 30
0.0
 11
-470.809986974
 21
-187.141852318
 31
0.0
  0
LINE
  5
107
330
A
100
AcDbEntity
  8
WARNER
  6
CENTER
 62
     7
100
AcDbLine
 10
-488.809986974
 20
-377.153487991
 30
0.0
 11
-488.809986974
 21
-187.141852318
 31
0.0
  0
LINE
  5
108
330
A
100
AcDbEntity
  8
WARNER
  6
SOLID
 62
     7
100
AcDbLine
 10
-512.809986974
 20
-272.141852318
 30
0.0
 11
-523.809635887
 21
-272.141852318
 31
0.0
  0
LINE
  5
109
330
A
100
AcDbEntity
  8
WARNER
  6
SOLID
 62
     7
100
AcDbLine
 10
-512.809986974
 20
-102.141852318
 30
0.0
 11
-523.809635887
 21
-102.141852318
 31
0.0
  0
LINE
  5
10A
330
A
100
AcDbEntity
  8
WARNER
  6
SOLID
 62
     7
100
AcDbLine
 10
-507.8099869739999
 20
-107.141852318
 30
0.0
 11
-507.8099869739999
 21
-267.141852318
 31
0.0
  0
LINE
  5
10B
330
A
100
AcDbEntity
  8
WARNER
  6
CENTER
 62
     7
100
AcDbLine
 10
-575.8830158199999
 20
-84.641867577
 30
0.0
 11
-546.290056852
 21
-84.641867577
 31
0.0
  0
LINE
  5
10C
330
A
100
AcDbEntity
  8
WARNER
  6
CENTER
 62
     7
100
AcDbLine
 10
-699.736958127
 20
-84.641867577
 30
0.0
 11
-729.329917095
 21
-84.641867577
 31
0.0
  0
LINE
  5
10D
330
A
100
AcDbEntity
  8
WARNER
  6
SOLID
 62
     7
100
AcDbLine
 10
-542.809986974
 20
-347.141587906
 30
0.0
 11
-732.8099869739999
 21
-347.141587906
 31
0.0
  0
LINE
  5
10E
330
A
100
AcDbEntity
  8
WARNER
  6
SOLID
 62
     7
100
AcDbLine
 10
-732.8099869739999
 20
22.089782422
 30
0.0
 11
-732.8099869739999
 21
7.858388916
 31
0.0
  0
LINE
  5
10F
330
A
100
AcDbEntity
  8
WARNER
  6
SOLID
 62
     7
100
AcDbLine
 10
-542.809986974
 20
22.089782422
 30
0.0
 11
-542.809986974
 21
7.858388916
 31
0.0
  0
LINE
  5
110
330
A
100
AcDbEntity
  8
WARNER
  6
SOLID
 62
     7
100
AcDbLine
 10
-407.8099869739999
 20
-367.141852318
 30
0.0
 11
-407.8099869739999
 21
-187.141852318
 31
0.0
  0
LINE
  5
111
330
A
100
AcDbEntity
  8
WARNER
  6
SOLID
 62
     7
100
AcDbLine
 10
-497.809986974
 20
-367.141852318
 30
0.0
 11
-497.809986974
 21
-187.141852318
 31
0.0
  0
ARC
  5
112
330
A
100
AcDbEntity
  8
WARNER
  6
SOLID
 62
     7
100
AcDbCircle
 10
-757.8099869739999
 20
-33.667098782
 30
0.0
 40
10.0
100
AcDbArc
 50
180.0
 51
270.0
  0
LINE
  5
113
330
A
100
AcDbEntity
  8
WARNER
  6
SOLID
 62
     7
100
AcDbLine
 10
-407.8099869739999
 20
-367.141852318
 30
0.0
 11
-497.809986974
 21
-367.141852318
 31
0.0
  0
ARC
  5
114
330
A
100
AcDbEntity
  8
WARNER
  6
SOLID
 62
     7
100
AcDbCircle
 10
-517.809986974
 20
-33.667098782
 30
0.0
 40
10.0
100
AcDbArc
 50
270.0
 51
0.0
  0
LINE
  5
115
330
A
100
AcDbEntity
  8
WARNER
  6
CENTER
 62
     7
100
AcDbLine
 10
-416.809986974
 20
0.9762759469999998
 30
0.0
 11
-416.809986974
 21
-187.141852318
 31
0.0
  0
LINE
  5
116
330
A
100
AcDbEntity
  8
WARNER
  6
SOLID
 62
     7
100
AcDbLine
 10
-517.809986974
 20
-43.667098782
 30
0.0
 11
-523.809635887
 21
-43.667098782
 31
0.0
  0
LINE
  5
117
330
A
100
AcDbEntity
  8
WARNER
  6
SOLID
 62
     7
100
AcDbLine
 10
-767.8099869739999
 20
31.542965089
 30
0.0
 11
-767.8099869739999
 21
-33.667098782
 31
0.0
  0
LINE
  5
118
330
A
100
AcDbEntity
  8
WARNER
  6
SOLID
 62
     7
100
AcDbLine
 10
-507.8099869739999
 20
31.542965089
 30
0.0
 11
-507.8099869739999
 21
-33.667098782
 31
0.0
  0
LINE
  5
119
330
A
100
AcDbEntity
  8
WARNER
  6
CENTER
 62
     7
100
AcDbLine
 10
-434.809986974
 20
1.923029651
 30
0.0
 11
-434.809986974
 21
-187.141852318
 31
0.0
  0
LINE
  5
11A
330
A
100
AcDbEntity
  8
WARNER
  6
CENTER
 62
     7
100
AcDbLine
 10
-488.809986974
 20
2.869783355
 30
0.0
 11
-488.809986974
 21
-187.141852318
 31
0.0
  0
LWPOLYLINE
  5
11B
330
A
100
AcDbEntity
  8
WARNER
  6
SOLID
 62
     7
100
AcDbPolyline
 90
       64
 70
     0
 43
0.0
 10
-462.809985316
 20
500.73224728
 10
-462.8474215599999
 20
501.662191714
 10
-462.9595853359999
 20
502.5917386209999
 10
-463.146428738
 20
503.520490985
 10
-463.407871965
 20
504.4480521319999
 10
-463.7438033519999
 20
505.374025894
 10
-464.1540794209999
 20
506.298016782
 10
-464.6385249419999
 20
507.219630155
 10
-465.196933004
 20
508.138472387
 10
-465.829065108
 20
509.054151033
 10
-466.5346512669999
 20
509.966275004
 10
-467.3133901209999
 20
510.874454724
 10
-468.1649490649999
 20
511.778302306
 10
-469.088964395
 20
512.6774317099999
 10
-470.085041458
 20
513.571458914
 10
-471.152754823
 20
514.460002073
 10
-472.2916484639999
 20
515.3426816849999
 10
-473.5012359519999
 20
516.2191207530001
 10
-474.7810006669999
 20
517.0889449439999
 10
-476.1303960119999
 20
517.9517827509999
 10
-477.5488456539999
 20
518.807265651
 10
-479.0357437639999
 20
519.655028263
 10
-480.590455279
 20
520.4947085009999
 10
-482.212316173
 20
521.325947735
 10
-483.9006337399999
 20
522.1483909359999
 10
-485.6546868889999
 20
522.9616868349999
 10
-487.473726454
 20
523.765488067
 10
-489.356975513
 20
524.559451325
 10
-491.303629718
 20
525.343237503
 10
-493.312857644
 20
526.11651184
 10
-495.383801135
 20
526.8789440669999
 10
-497.5155756819999
 20
527.6302085449999
 10
-499.707270789
 20
528.369984403
 10
-501.957950372
 20
529.09795568
 10
-504.266653153
 20
529.8138114549999
 10
-506.632393069
 20
530.5172459809999
 10
-509.054159701
 20
531.207958818
 10
-511.530918698
 20
531.885654958
 10
-514.0616122209999
 20
532.5500449529999
 10
-516.6451593959999
 20
533.200845038
 10
-519.2804567759999
 20
533.837777253
 10
-521.966378809
 20
534.4605695599999
 10
-524.7017783229999
 20
535.06895596
 10
-527.485487012
 20
535.6626766099999
 10
-530.316315938
 20
536.2414779269999
 10
-533.193056038
 20
536.805112701
 10
-536.114478639
 20
537.353340201
 10
-539.079335984
 20
537.8859262759999
 10
-542.086361766
 20
538.4026434549999
 10
-545.134271666
 20
538.903271045
 10
-548.2217639039999
 20
539.387595226
 10
-551.347519795
 20
539.855409139
 10
-554.5102043099999
 20
540.3065129789999
 10
-557.708466647
 20
540.740714076
 10
-560.94094081
 20
541.1578269809999
 10
-564.20624619
 20
541.557673542
 10
-567.502988158
 20
541.9400829819998
 10
-570.8297586539999
 20
542.304891973
 10
-574.1851367959999
 20
542.6519447019999
 10
-577.567689482
 20
542.98109294
 10
-580.975972004
 20
543.2921961069999
 10
-584.4085286649999
 20
543.585121329
 10
-587.8638933999999
 20
543.859743496
 10
-594.837134754
 20
544.35361736
  0
LINE
  5
11C
330
A
100
AcDbEntity
  8
WARNER
  6
CENTER
 62
     7
100
AcDbLine
 10
-470.809986974
 20
1.923029651
 30
0.0
 11
-470.809986974
 21
-187.141852318
 31
0.0
  0
DIMENSION
  5
12E
330
A
100
AcDbEntity
  8
WARNER
  6
SOLID
 62
     7
100
AcDbDimension
280
     0
  2
*D0
 10
-497.8111572269999
 20
58.87890625
 30
0.0
 11
-474.8080749509999
 21
73.87890625
 31
0.0
 71
     5
 42
0.0
 73
     0
 74
     0
 75
     0
  3
2
100
AcDbAlignedDimension
 13
-407.811157227
 23
-7.142578125
 33
0.0
 14
-497.8111572269999
 24
-7.142578125
 34
0.0
100
AcDbRotatedDimension
  0
DIMENSION
  5
13E
330
A
100
AcDbEntity
  8
WARNER
  6
SOLID
 62
     7
100
AcDbDimension
280
     0
  2
*D1
 10
-925.8096313480001
 20
-574.4219970699999
 30
0.0
 11
-817.0549316409999
 21
-559.42199707
 31
0.0
  1
  290   
 71
     5
 42
0.0
 73
     0
 74
     0
 75
     0
  3
3
100
AcDbAlignedDimension
 13
-637.809570313
 23
-512.8070678709999
 33
0.0
 14
-925.8096313480001
 24
-189.83996582
 34
0.0
100
AcDbRotatedDimension
  0
DIMENSION
  5
150
330
A
100
AcDbEntity
  8
WARNER
  6
SOLID
 62
     7
100
AcDbDimension
280
     0
  2
*D2
 10
-323.861938477
 20
-367.1416015630001
 30
0.0
 11
-338.861938477
 21
-328.380828857
 31
0.0
  1
 %%c 320   -700max
 71
     5
 42
0.0
 73
     0
 74
     0
 75
     0
  3
4
100
AcDbAlignedDimension
 13
-407.811157227
 23
-7.141601562999999
 33
0.0
 14
-407.811157227
 24
-367.1416015630001
 34
0.0
 50
90.0
100
AcDbRotatedDimension
  0
LINE
  5
151
330
A
100
AcDbEntity
  8
WARNER
  6
SOLID
 62
     7
100
AcDbLine
 10
-717.809926213
 20
81.90989462400001
 30
0.0
 11
-717.809926213
 21
255.989568546
 31
0.0
  0
LINE
  5
152
330
A
100
AcDbEntity
  8
WARNER
  6
CENTER
 62
     7
100
AcDbLine
 10
-637.809986974
 20
200.120633387
 30
0.0
 11
-637.809986974
 21
-190.074459578
 31
0.0
  0
TEXT
  5
153
330
A
100
AcDbEntity
  8
WARNER
  6
SOLID
 62
     7
100
AcDbText
 10
-360.31427002
 20
-208.754730225
 30
0.0
 40
30.0
  1
:
 50
269.9999975039345
 72
     5
 11
-360.314270173
 21
-212.266759872
 31
0.0
100
AcDbText
  0
LINE
  5
154
330
A
100
AcDbEntity
  8
WARNER
  6
CENTER
 62
     7
100
AcDbLine
 10
-687.809926213
 20
274.130866662
 30
0.0
 11
-687.809926213
 21
247.742245492
 31
0.0
  0
LINE
  5
155
330
A
100
AcDbEntity
  8
WARNER
  6
SOLID
 62
     7
100
AcDbLine
 10
-649.6455167349999
 20
256.52070452
 30
0.0
 11
-649.6455167349999
 21
255.989568546
 31
0.0
  0
LINE
  5
156
330
A
100
AcDbEntity
  8
WARNER
  6
SOLID
 62
     7
100
AcDbLine
 10
-661.4811976969999
 20
255.989568546
 30
0.0
 11
-661.4811976969999
 21
256.52070452
 31
0.0
  0
LINE
  5
157
330
A
100
AcDbEntity
  8
WARNER
  6
SOLID
 62
     7
100
AcDbLine
 10
-661.481200024
 20
270.851894878
 30
0.0
 11
-661.481200024
 21
276.02070452
 31
0.0
  0
LINE
  5
158
330
A
100
AcDbEntity
  8
WARNER
  6
SOLID
 62
     7
100
AcDbLine
 10
-649.6455190619999
 20
276.02070452
 30
0.0
 11
-649.6455190619999
 21
270.851894878
 31
0.0
  0
ARC
  5
159
330
A
100
AcDbEntity
  8
WARNER
  6
SOLID
 62
     7
100
AcDbCircle
 10
-655.563359543
 20
267.372814145
 30
0.0
 40
10.47887608
100
AcDbArc
 50
55.615761582
 51
124.384238418
  0
ARC
  5
15A
330
A
100
AcDbEntity
  8
WARNER
  6
SOLID
 62
     7
100
AcDbCircle
 10
-637.8098381
 20
238.682664463
 30
0.0
 40
39.169025762
100
AcDbArc
 50
72.41205106799999
 51
107.587948932
  0
LINE
  5
15B
330
A
100
AcDbEntity
  8
WARNER
  6
SOLID
 62
     7
100
AcDbLine
 10
-655.563359543
 20
277.851690225
 30
0.0
 11
-620.056316658
 21
277.851690225
 31
0.0
  0
ARC
  5
15C
330
A
100
AcDbEntity
  8
WARNER
  6
SOLID
 62
     7
100
AcDbCircle
 10
-655.5633572159999
 20
247.872814145
 30
0.0
 40
10.47887608
100
AcDbArc
 50
55.615761582
 51
124.384238418
  0
ARC
  5
15D
330
A
100
AcDbEntity
  8
WARNER
  6
SOLID
 62
     7
100
AcDbCircle
 10
-637.809835773
 20
219.182664463
 30
0.0
 40
39.169025762
100
AcDbArc
 50
72.41205106799999
 51
107.587948932
  0
LINE
  5
15E
330
A
100
AcDbEntity
  8
WARNER
  6
SOLID
 62
     7
100
AcDbLine
 10
-614.1384761769999
 20
270.851894878
 30
0.0
 11
-661.481200024
 21
270.851894878
 31
0.0
  0
LINE
  5
15F
330
A
100
AcDbEntity
  8
WARNER
  6
SOLID
 62
     7
100
AcDbLine
 10
-658.3099286589999
 20
270.851894878
 30
0.0
 11
-658.309927124
 21
257.985340913
 31
0.0
  0
LINE
  5
160
330
A
100
AcDbEntity
  8
WARNER
  6
SOLID
 62
     7
100
AcDbLine
 10
-655.5633572159999
 20
258.351690225
 30
0.0
 11
-620.0563143309999
 21
258.351690225
 31
0.0
  0
LINE
  5
161
330
A
100
AcDbEntity
  8
WARNER
  6
SOLID
 62
     7
100
AcDbLine
 10
-659.424450203
 20
270.255738787
 30
0.0
 11
-658.332877027
 21
270.828814705
 31
0.0
  0
LINE
  5
162
330
A
100
AcDbEntity
  8
WARNER
  6
SOLID
 62
     7
100
AcDbLine
 10
-660.8099242009999
 20
267.211514163
 30
0.0
 11
-660.8099254259999
 21
256.943771309
 31
0.0
  0
LINE
  5
163
330
A
100
AcDbEntity
  8
WARNER
  6
SOLID
 62
     7
100
AcDbLine
 10
-660.2183931949999
 20
269.053981409
 30
0.0
 11
-659.424450203
 21
270.255738787
 31
0.0
  0
LINE
  5
164
330
A
100
AcDbEntity
  8
WARNER
  6
SOLID
 62
     7
100
AcDbLine
 10
-660.8099242009999
 20
267.211514163
 30
0.0
 11
-660.2183931949999
 21
269.053981409
 31
0.0
  0
LINE
  5
165
330
A
100
AcDbEntity
  8
WARNER
  6
SOLID
 62
     7
100
AcDbLine
 10
-677.809926213
 20
255.989568546
 30
0.0
 11
-677.809926213
 21
262.051690034
 31
0.0
  0
LINE
  5
166
330
A
100
AcDbEntity
  8
WARNER
  6
SOLID
 62
     7
100
AcDbLine
 10
-697.809926213
 20
255.989568546
 30
0.0
 11
-697.809926213
 21
262.051690034
 31
0.0
  0
LINE
  5
167
330
A
100
AcDbEntity
  8
WARNER
  6
SOLID
 62
     7
100
AcDbLine
 10
-677.809926213
 20
262.051690034
 30
0.0
 11
-697.809926213
 21
262.051690034
 31
0.0
  0
LINE
  5
168
330
A
100
AcDbEntity
  8
WARNER
  6
SOLID
 62
     7
100
AcDbLine
 10
-678.716629473
 20
262.051690034
 30
0.0
 11
-697.809926213
 21
262.051690034
 31
0.0
  0
ARC
  5
169
330
A
100
AcDbEntity
  8
WARNER
  6
SOLID
 62
     7
100
AcDbCircle
 10
-696.903162447
 20
267.418916738
 30
0.0
 40
5.367226704
100
AcDbArc
 50
235.615745822
 51
304.384254178
  0
ARC
  5
16A
330
A
100
AcDbEntity
  8
WARNER
  6
SOLID
 62
     7
100
AcDbCircle
 10
-687.8098959599999
 20
282.113863338
 30
0.0
 40
20.062173304
100
AcDbArc
 50
252.412042636
 51
287.587957364
  0
LINE
  5
16B
330
A
100
AcDbEntity
  8
WARNER
  6
SOLID
 62
     7
100
AcDbLine
 10
-785.8096380610001
 20
-310.754219044
 30
0.0
 11
-785.8096376719999
 21
-307.310212731
 31
0.0
  0
LINE
  5
16C
330
A
100
AcDbEntity
  8
WARNER
  6
SOLID
 62
     7
100
AcDbLine
 10
-785.8096375989999
 20
-306.664576992
 30
0.0
 11
-785.8096372089999
 21
-303.220570679
 31
0.0
  0
ARC
  5
16D
330
A
100
AcDbEntity
  8
WARNER
  6
SOLID
 62
     7
100
AcDbCircle
 10
-678.716629473
 20
267.418916738
 30
0.0
 40
5.367226704
100
AcDbArc
 50
235.615745822
 51
304.384254178
  0
LINE
  5
16E
330
A
100
AcDbEntity
  8
WARNER
  6
SOLID
 62
     7
100
AcDbLine
 10
-681.7477183019999
 20
266.9138678829999
 30
0.0
 11
-681.7477183019999
 21
262.989512376
 31
0.0
  0
LINE
  5
16F
330
A
100
AcDbEntity
  8
WARNER
  6
SOLID
 62
     7
100
AcDbLine
 10
-696.903162447
 20
267.851690225
 30
0.0
 11
-678.716629473
 21
267.851690225
 31
0.0
  0
LINE
  5
170
330
A
100
AcDbEntity
  8
WARNER
  6
SOLID
 62
     7
100
AcDbLine
 10
-693.872073618
 20
266.9138678829999
 30
0.0
 11
-693.872073618
 21
262.989512376
 31
0.0
  0
LINE
  5
171
330
A
100
AcDbEntity
  8
WARNER
  6
SOLID
 62
     7
100
AcDbLine
 10
-675.685540644
 20
266.9138678829999
 30
0.0
 11
-675.685540644
 21
262.989512376
 31
0.0
  0
ARC
  5
172
330
A
100
AcDbEntity
  8
WARNER
  6
SOLID
 62
     7
100
AcDbCircle
 10
-678.716629473
 20
262.48446352
 30
0.0
 40
5.367226705
100
AcDbArc
 50
55.615745828
 51
124.384254172
  0
ARC
  5
173
330
A
100
AcDbEntity
  8
WARNER
  6
SOLID
 62
     7
100
AcDbCircle
 10
-687.8098959599999
 20
247.789516918
 30
0.0
 40
20.062173307
100
AcDbArc
 50
72.41204263899999
 51
107.587957361
  0
ARC
  5
174
330
A
100
AcDbEntity
  8
WARNER
  6
SOLID
 62
     7
100
AcDbCircle
 10
-696.903162447
 20
262.48446352
 30
0.0
 40
5.367226705
100
AcDbArc
 50
55.615745828
 51
124.384254172
  0
LINE
  5
175
330
A
100
AcDbEntity
  8
WARNER
  6
SOLID
 62
     7
100
AcDbLine
 10
-699.9342512760001
 20
262.989512376
 30
0.0
 11
-699.9342512760001
 21
266.9138678829999
 31
0.0
  0
LINE
  5
176
330
A
100
AcDbEntity
  8
WARNER
  6
CENTER
 62
     7
100
AcDbLine
 10
-687.809926213
 20
257.151689939
 30
0.0
 11
-687.809926213
 21
265.471690111
 31
0.0
  0
LINE
  5
177
330
A
100
AcDbEntity
  8
WARNER
  6
SOLID
 62
     7
100
AcDbLine
 10
-557.809926213
 20
255.989568546
 30
0.0
 11
-717.809926213
 21
255.989568546
 31
0.0
  0
LINE
  5
178
330
A
100
AcDbEntity
  8
WARNER
  6
SOLID
 62
     7
100
AcDbLine
 10
-557.809926213
 20
99.509589691
 30
0.0
 11
-717.809926213
 21
99.509589691
 31
0.0
  0
LINE
  5
179
330
A
100
AcDbEntity
  8
WARNER
  6
SOLID
 62
     7
100
AcDbLine
 10
-557.809926213
 20
81.90989462400001
 30
0.0
 11
-717.809926213
 21
81.90989462400001
 31
0.0
  0
LINE
  5
17A
330
A
100
AcDbEntity
  8
WARNER
  6
CENTER
 62
     7
100
AcDbLine
 10
-587.809926213
 20
274.130866662
 30
0.0
 11
-587.809926213
 21
247.742245492
 31
0.0
  0
LINE
  5
17B
330
A
100
AcDbEntity
  8
WARNER
  6
SOLID
 62
     7
100
AcDbLine
 10
-614.13847385
 20
256.52070452
 30
0.0
 11
-614.13847385
 21
255.989568546
 31
0.0
  0
LINE
  5
17C
330
A
100
AcDbEntity
  8
WARNER
  6
SOLID
 62
     7
100
AcDbLine
 10
-625.9741548119999
 20
256.52070452
 30
0.0
 11
-625.9741548119999
 21
255.989568546
 31
0.0
  0
ARC
  5
17D
330
A
100
AcDbEntity
  8
WARNER
  6
SOLID
 62
     7
100
AcDbCircle
 10
-620.056316658
 20
267.372814145
 30
0.0
 40
10.47887608
100
AcDbArc
 50
55.615761582
 51
124.384238418
  0
ARC
  5
17E
330
A
100
AcDbEntity
  8
WARNER
  6
SOLID
 62
     7
100
AcDbCircle
 10
-620.0563143309999
 20
247.872814145
 30
0.0
 40
10.47887608
100
AcDbArc
 50
55.615761582
 51
124.384238418
  0
LINE
  5
17F
330
A
100
AcDbEntity
  8
WARNER
  6
SOLID
 62
     7
100
AcDbLine
 10
-616.1954022219999
 20
270.255738787
 30
0.0
 11
-617.2869753989999
 21
270.828814705
 31
0.0
  0
LINE
  5
180
330
A
100
AcDbEntity
  8
WARNER
  6
SOLID
 62
     7
100
AcDbLine
 10
-615.40145923
 20
269.053981409
 30
0.0
 11
-616.1954022219999
 21
270.255738787
 31
0.0
  0
LINE
  5
181
330
A
100
AcDbEntity
  8
WARNER
  6
SOLID
 62
     7
100
AcDbLine
 10
-614.809928225
 20
267.211514163
 30
0.0
 11
-614.809926999
 21
256.943771309
 31
0.0
  0
LINE
  5
182
330
A
100
AcDbEntity
  8
WARNER
  6
SOLID
 62
     7
100
AcDbLine
 10
-614.809928225
 20
267.211514163
 30
0.0
 11
-615.40145923
 21
269.053981409
 31
0.0
  0
LINE
  5
183
330
A
100
AcDbEntity
  8
WARNER
  6
SOLID
 62
     7
100
AcDbLine
 10
-625.974157139
 20
276.02070452
 30
0.0
 11
-625.974157139
 21
270.851894878
 31
0.0
  0
LINE
  5
184
330
A
100
AcDbEntity
  8
WARNER
  6
SOLID
 62
     7
100
AcDbLine
 10
-614.1384761769999
 20
276.02070452
 30
0.0
 11
-614.1384761769999
 21
270.851894878
 31
0.0
  0
LINE
  5
185
330
A
100
AcDbEntity
  8
WARNER
  6
SOLID
 62
     7
100
AcDbLine
 10
-617.309928659
 20
270.851894878
 30
0.0
 11
-617.309927124
 21
257.985390533
 31
0.0
  0
LINE
  5
186
330
A
100
AcDbEntity
  8
WARNER
  6
SOLID
 62
     7
100
AcDbLine
 10
-597.809926213
 20
255.989568546
 30
0.0
 11
-597.809926213
 21
262.051690034
 31
0.0
  0
LINE
  5
187
330
A
100
AcDbEntity
  8
WARNER
  6
SOLID
 62
     7
100
AcDbLine
 10
-577.809926213
 20
255.989568546
 30
0.0
 11
-577.809926213
 21
262.051690034
 31
0.0
  0
LINE
  5
188
330
A
100
AcDbEntity
  8
WARNER
  6
SOLID
 62
     7
100
AcDbLine
 10
-597.809926213
 20
262.051690034
 30
0.0
 11
-577.809926213
 21
262.051690034
 31
0.0
  0
LINE
  5
189
330
A
100
AcDbEntity
  8
WARNER
  6
SOLID
 62
     7
100
AcDbLine
 10
-596.903222953
 20
262.051690034
 30
0.0
 11
-577.809926213
 21
262.051690034
 31
0.0
  0
ARC
  5
18A
330
A
100
AcDbEntity
  8
WARNER
  6
SOLID
 62
     7
100
AcDbCircle
 10
-578.7166899779999
 20
267.418916738
 30
0.0
 40
5.367226704
100
AcDbArc
 50
235.615745822
 51
304.384254178
  0
DIMENSION
  5
196
330
A
100
AcDbEntity
  8
WARNER
  6
SOLID
 62
     7
100
AcDbDimension
280
     0
  2
*D3
 10
-751.809570313
 20
-494.421875
 30
0.0
 11
-673.0549316409999
 21
-479.4218749999999
 31
0.0
  1
  230   
 71
     5
 42
0.0
 73
     0
 74
     0
 75
     0
  3
5
100
AcDbAlignedDimension
 13
-523.8095703129999
 23
-277.038085938
 33
0.0
 14
-751.809570313
 24
-347.141601563
 34
0.0
100
AcDbRotatedDimension
  0
DIMENSION
  5
1A6
330
A
100
AcDbEntity
  8
WARNER
  6
SOLID
 62
     7
100
AcDbDimension
280
     0
  2
*D4
 10
-751.809570313
 20
-494.421875
 30
0.0
 11
-673.0549316409999
 21
-479.4218749999999
 31
0.0
  1
  230   
 71
     5
 42
0.0
 73
     0
 74
     0
 75
     0
  3
6
100
AcDbAlignedDimension
 13
-523.8095703129999
 23
-277.037597656
 33
0.0
 14
-751.809570313
 24
-347.141113281
 34
0.0
100
AcDbRotatedDimension
  0
LINE
  5
1A7
330
A
100
AcDbEntity
  8
WARNER
  6
SOLID
 62
     7
100
AcDbLine
 10
-665.309635887
 20
-501.78885516
 30
0.0
 11
-650.309635887
 21
-501.78885516
 31
0.0
  0
INSERT
  5
1B0
330
A
100
AcDbEntity
  8
0
100
AcDbBlockReference
  2
*H55
 10
0.0
 20
0.0
 30
0.0
  0
LINE
  5
1B1
330
A
100
AcDbEntity
  8
WARNER
  6
CENTER
 62
     7
100
AcDbLine
 10
-637.809575126
 20
-485.07178763
 30
0.0
 11
-637.809575126
 21
-513.5320909599999
 31
0.0
  0
CIRCLE
  5
1B2
330
A
100
AcDbEntity
  8
WARNER
  6
SOLID
 62
     7
100
AcDbCircle
 10
-637.809635887
 20
-494.28885516
 30
0.0
 40
3.499999939999999
  0
ARC
  5
1B3
330
A
100
AcDbEntity
  8
WARNER
  6
SOLID
 62
     7
100
AcDbCircle
 10
-587.809956465
 20
282.113863338
 30
0.0
 40
20.062173304
100
AcDbArc
 50
252.412042636
 51
287.587957364
  0
ARC
  5
1B4
330
A
100
AcDbEntity
  8
WARNER
  6
SOLID
 62
     7
100
AcDbCircle
 10
-596.903222953
 20
267.418916738
 30
0.0
 40
5.367226704
100
AcDbArc
 50
235.615745822
 51
304.384254178
  0
LINE
  5
1B5
330
A
100
AcDbEntity
  8
WARNER
  6
SOLID
 62
     7
100
AcDbLine
 10
-593.8721341229999
 20
266.9138678829999
 30
0.0
 11
-593.8721341229999
 21
262.989512376
 31
0.0
  0
LINE
  5
1B6
330
A
100
AcDbEntity
  8
WARNER
  6
SOLID
 62
     7
100
AcDbLine
 10
-578.7166899779999
 20
267.851690225
 30
0.0
 11
-596.903222953
 21
267.851690225
 31
0.0
  0
LINE
  5
1B7
330
A
100
AcDbEntity
  8
WARNER
  6
SOLID
 62
     7
100
AcDbLine
 10
-581.7477788069999
 20
266.9138678829999
 30
0.0
 11
-581.7477788069999
 21
262.989512376
 31
0.0
  0
LINE
  5
1B8
330
A
100
AcDbEntity
  8
WARNER
  6
SOLID
 62
     7
100
AcDbLine
 10
-599.934311782
 20
266.9138678829999
 30
0.0
 11
-599.934311782
 21
262.989512376
 31
0.0
  0
ARC
  5
1B9
330
A
100
AcDbEntity
  8
WARNER
  6
SOLID
 62
     7
100
AcDbCircle
 10
-596.903222953
 20
262.48446352
 30
0.0
 40
5.367226705
100
AcDbArc
 50
55.615745828
 51
124.384254172
  0
ARC
  5
1BA
330
A
100
AcDbEntity
  8
WARNER
  6
SOLID
 62
     7
100
AcDbCircle
 10
-587.809956465
 20
247.789516918
 30
0.0
 40
20.062173307
100
AcDbArc
 50
72.41204263899999
 51
107.587957361
  0
ARC
  5
1BB
330
A
100
AcDbEntity
  8
WARNER
  6
SOLID
 62
     7
100
AcDbCircle
 10
-578.7166899779999
 20
262.48446352
 30
0.0
 40
5.367226705
100
AcDbArc
 50
55.615745828
 51
124.384254172
  0
LINE
  5
1BC
330
A
100
AcDbEntity
  8
WARNER
  6
SOLID
 62
     7
100
AcDbLine
 10
-575.685601149
 20
262.989512376
 30
0.0
 11
-575.685601149
 21
266.9138678829999
 31
0.0
  0
LINE
  5
1BD
330
A
100
AcDbEntity
  8
WARNER
  6
CENTER
 62
     7
100
AcDbLine
 10
-587.809926213
 20
257.151689939
 30
0.0
 11
-587.809926213
 21
265.471690111
 31
0.0
  0
LINE
  5
1BE
330
A
100
AcDbEntity
  8
WARNER
  6
SOLID
 62
     7
100
AcDbLine
 10
-557.809926213
 20
255.989568546
 30
0.0
 11
-557.809926213
 21
81.90989462400001
 31
0.0
  0
LINE
  5
1BF
330
A
100
AcDbEntity
  8
WARNER
  6
SOLID
 62
     7
100
AcDbLine
 10
-665.309635887
 20
-507.788855398
 30
0.0
 11
-650.309635887
 21
-507.788855398
 31
0.0
  0
LINE
  5
1C0
330
A
100
AcDbEntity
  8
WARNER
  6
SOLID
 62
     7
100
AcDbLine
 10
-610.309180165
 20
-507.788855398
 30
0.0
 11
-625.3091801650001
 21
-507.788855398
 31
0.0
  0
LINE
  5
1C1
330
A
100
AcDbEntity
  8
WARNER
  6
SOLID
 62
     7
100
AcDbLine
 10
-610.309635887
 20
-501.78885516
 30
0.0
 11
-625.309635887
 21
-501.78885516
 31
0.0
  0
INSERT
  5
1CA
330
A
100
AcDbEntity
  8
0
100
AcDbBlockReference
  2
*H66
 10
0.0
 20
0.0
 30
0.0
  0
DIMENSION
  5
1DA
330
A
100
AcDbEntity
  8
WARNER
  6
SOLID
 62
     7
100
AcDbDimension
280
     0
  2
*D7
 10
-712.809570313
 20
-279.841308594
 30
0.0
 11
-673.0549316409999
 21
-264.841308594
 31
0.0
 71
     5
 42
0.0
 73
     0
 74
     0
 75
     0
  3
7
100
AcDbAlignedDimension
 13
-562.8095703129999
 23
-392.1171875
 33
0.0
 14
-712.809570313
 24
-392.1171875
 34
0.0
100
AcDbRotatedDimension
  0
DIMENSION
  5
1E6
330
A
100
AcDbEntity
  8
WARNER
  6
SOLID
 62
     7
100
AcDbDimension
280
     0
  2
*D8
 10
-721.309570313
 20
-414.421875
 30
0.0
 11
-667.3049316409999
 21
-399.421875
 31
0.0
  1
  190   
 71
     5
 42
0.0
 73
     0
 74
     0
 75
     0
  3
8
100
AcDbAlignedDimension
 13
-542.809570313
 23
-347.141601563
 33
0.0
 14
-721.309570313
 24
-75.29638671899999
 34
0.0
100
AcDbRotatedDimension
  0
LINE
  5
1E7
330
A
100
AcDbEntity
  8
WARNER
  6
SOLID
 62
     7
100
AcDbLine
 10
-542.809635887
 20
-347.141611084
 30
0.0
 11
-732.8096358869999
 21
-347.141611084
 31
0.0
  0
LINE
  5
1E8
330
A
100
AcDbEntity
  8
WARNER
  6
SOLID
 62
     7
100
AcDbLine
 10
-751.809635887
 20
-347.141611084
 30
0.0
 11
-542.809635887
 21
-347.141611084
 31
0.0
  0
LINE
  5
1E9
330
A
100
AcDbEntity
  8
WARNER
  6
SOLID
 62
     7
100
AcDbLine
 10
-751.809635887
 20
7.858388916
 30
0.0
 11
-751.809635887
 21
-347.141611084
 31
0.0
  0
LINE
  5
1EA
330
A
100
AcDbEntity
  8
WARNER
  6
SOLID
 62
     7
100
AcDbLine
 10
-747.809635887
 20
7.858388916
 30
0.0
 11
-747.809635887
 21
-347.141611084
 31
0.0
  0
LINE
  5
1EB
330
A
100
AcDbEntity
  8
WARNER
  6
SOLID
 62
     7
100
AcDbLine
 10
-747.809635887
 20
-343.141611084
 30
0.0
 11
-559.975220517
 21
-343.141611084
 31
0.0
  0
ARC
  5
1EC
330
A
100
AcDbEntity
  8
WARNER
  6
SOLID
 62
     7
100
AcDbCircle
 10
-749.809635887
 20
-345.141611084
 30
0.0
 40
7.0
100
AcDbArc
 50
16.601549599
 51
73.39845040100001
  0
LINE
  5
1ED
330
A
100
AcDbEntity
  8
WARNER
  6
SOLID
 62
     7
100
AcDbLine
 10
-569.737815886
 20
-343.141604033
 30
0.0
 11
-569.737815886
 21
-334.21337789
 31
0.0
  0
LINE
  5
1EE
330
A
100
AcDbEntity
  8
WARNER
  6
SOLID
 62
     7
100
AcDbLine
 10
-576.666018872
 20
-334.213378046
 30
0.0
 11
-576.666018872
 21
-343.141604189
 31
0.0
  0
LINE
  5
1EF
330
A
100
AcDbEntity
  8
WARNER
  6
SOLID
 62
     7
100
AcDbLine
 10
-698.953148626
 20
-343.141575559
 30
0.0
 11
-698.953148626
 21
-334.213349415
 31
0.0
  0
LINE
  5
1F0
330
A
100
AcDbEntity
  8
WARNER
  6
SOLID
 62
     7
100
AcDbLine
 10
-705.881409861
 20
-343.141604062
 30
0.0
 11
-705.881409861
 21
-334.213377919
 31
0.0
  0
LINE
  5
1F1
330
A
100
AcDbEntity
  8
WARNER
  6
SOLID
 62
     7
100
AcDbLine
 10
-719.737815886
 20
-343.141604033
 30
0.0
 11
-719.737815886
 21
-334.21337789
 31
0.0
  0
LINE
  5
1F2
330
A
100
AcDbEntity
  8
WARNER
  6
SOLID
 62
     7
100
AcDbLine
 10
-726.666018872
 20
-334.213378046
 30
0.0
 11
-726.666018872
 21
-343.141604189
 31
0.0
  0
LINE
  5
1F3
330
A
100
AcDbEntity
  8
WARNER
  6
SOLID
 62
     7
100
AcDbLine
 10
-559.7101842799999
 20
-342.17562724
 30
0.0
 11
-561.072697411
 21
-347.141611084
 31
0.0
  0
LINE
  5
1F4
330
A
100
AcDbEntity
  8
WARNER
  6
SOLID
 62
     7
100
AcDbLine
 10
-558.749214306
 20
-330.323664237
 30
0.0
 11
-559.7101842799999
 21
-342.17562724
 31
0.0
  0
LINE
  5
1F5
330
A
100
AcDbEntity
  8
WARNER
  6
SOLID
 62
     7
100
AcDbLine
 10
-542.809635887
 20
-347.141611084
 30
0.0
 11
-732.8096358869999
 21
-347.141611084
 31
0.0
  0
LINE
  5
1F6
330
A
100
AcDbEntity
  8
WARNER
  6
SOLID
 62
     7
100
AcDbLine
 10
-542.809635887
 20
-302.960712151
 30
0.0
 11
-542.809635887
 21
-347.141611084
 31
0.0
  0
LINE
  5
1F7
330
A
100
AcDbEntity
  8
WARNER
  6
SOLID
 62
     7
100
AcDbLine
 10
-610.309180165
 20
-427.788855398
 30
0.0
 11
-625.3091801650001
 21
-427.788855398
 31
0.0
  0
LINE
  5
1F8
330
A
100
AcDbEntity
  8
WARNER
  6
CENTER
 62
     7
100
AcDbLine
 10
-637.809635887
 20
-272.481422227
 30
0.0
 11
-637.809635887
 21
-353.901416274
 31
0.0
  0
LINE
  5
1F9
330
A
100
AcDbEntity
  8
WARNER
  6
CENTER
 62
     7
100
AcDbLine
 10
-637.809635887
 20
-405.1428615619999
 30
0.0
 11
-637.809635887
 21
-434.921840394
 31
0.0
  0
LINE
  5
1FA
330
A
100
AcDbEntity
  8
WARNER
  6
SOLID
 62
     7
100
AcDbLine
 10
-610.309635887
 20
-421.78885516
 30
0.0
 11
-625.309635887
 21
-421.78885516
 31
0.0
  0
LINE
  5
1FB
330
A
100
AcDbEntity
  8
WARNER
  6
SOLID
 62
     7
100
AcDbLine
 10
-665.309635887
 20
-421.78885516
 30
0.0
 11
-650.309635887
 21
-421.78885516
 31
0.0
  0
LINE
  5
1FC
330
A
100
AcDbEntity
  8
WARNER
  6
SOLID
 62
     7
100
AcDbLine
 10
-665.309635887
 20
-427.788855398
 30
0.0
 11
-650.309635887
 21
-427.788855398
 31
0.0
  0
CIRCLE
  5
1FD
330
A
100
AcDbEntity
  8
WARNER
  6
SOLID
 62
     7
100
AcDbCircle
 10
-637.809635887
 20
-414.28885516
 30
0.0
 40
3.499999939999999
  0
LINE
  5
1FE
330
A
100
AcDbEntity
  8
WARNER
  6
SOLID
 62
     7
100
AcDbLine
 10
-704.309635887
 20
-117.141875496
 30
0.0
 11
-721.309635887
 21
-117.141875496
 31
0.0
  0
LINE
  5
1FF
330
A
100
AcDbEntity
  8
WARNER
  6
CENTER
 62
     7
100
AcDbLine
 10
-712.809635887
 20
-61.352069491
 30
0.0
 11
-712.809635887
 21
-106.544445043
 31
0.0
  0
LINE
  5
200
330
A
100
AcDbEntity
  8
WARNER
  6
CENTER
 62
     7
100
AcDbLine
 10
-699.736607041
 20
-84.641890755
 30
0.0
 11
-729.3295660089999
 21
-84.641890755
 31
0.0
  0
LINE
  5
201
330
A
100
AcDbEntity
  8
WARNER
  6
SOLID
 62
     7
100
AcDbLine
 10
-704.309635887
 20
-57.141875496
 30
0.0
 11
-721.309635887
 21
-57.141875496
 31
0.0
  0
LINE
  5
202
330
A
100
AcDbEntity
  8
WARNER
  6
SOLID
 62
     7
100
AcDbLine
 10
-719.632905199
 20
-96.701785266
 30
0.0
 11
-705.777026015
 21
-96.58093351399999
 31
0.0
  0
LINE
  5
203
330
A
100
AcDbEntity
  8
WARNER
  6
SOLID
 62
     7
100
AcDbLine
 10
-726.665505531
 20
-84.762667475
 30
0.0
 11
-719.6329051589999
 21
-96.70178491000001
 31
0.0
  0
ARC
  5
204
330
A
100
AcDbEntity
  8
WARNER
  6
SOLID
 62
     7
100
AcDbCircle
 10
-712.809635887
 20
-117.141611084
 30
0.0
 40
8.5
100
AcDbArc
 50
180.0
 51
0.0
  0
ARC
  5
205
330
A
100
AcDbEntity
  8
WARNER
  6
SOLID
 62
     7
100
AcDbCircle
 10
-712.809635887
 20
-17.141611084
 30
0.0
 40
8.5
100
AcDbArc
 50
0.0
 51
180.0
  0
LINE
  5
206
330
A
100
AcDbEntity
  8
WARNER
  6
SOLID
 62
     7
100
AcDbLine
 10
-705.777025916
 20
-96.58093351299999
 30
0.0
 11
-698.953746917
 21
-84.52096432499999
 31
0.0
  0
LINE
  5
207
330
A
100
AcDbEntity
  8
WARNER
  6
SOLID
 62
     7
100
AcDbLine
 10
-698.953746963
 20
-84.52096397
 30
0.0
 11
-705.986347336
 21
-72.58184653499999
 31
0.0
  0
LINE
  5
208
330
A
100
AcDbEntity
  8
WARNER
  6
SOLID
 62
     7
100
AcDbLine
 10
-705.986347295
 20
-72.58184617899999
 30
0.0
 11
-719.8422264789999
 21
-72.702697931
 31
0.0
  0
LINE
  5
209
330
A
100
AcDbEntity
  8
WARNER
  6
SOLID
 62
     7
100
AcDbLine
 10
-719.8422265789998
 20
-72.70269793199999
 30
0.0
 11
-726.665505577
 21
-84.76266712000001
 31
0.0
  0
CIRCLE
  5
20A
330
A
100
AcDbEntity
  8
WARNER
  6
SOLID
 62
     7
100
AcDbCircle
 10
-712.809635887
 20
-84.641890755
 30
0.0
 40
11.979000635
  0
LINE
  5
20B
330
A
100
AcDbEntity
  8
WARNER
  6
SOLID
 62
     7
100
AcDbLine
 10
-704.309635887
 20
-17.141611084
 30
0.0
 11
-704.309635887
 21
-75.428368991
 31
0.0
  0
LINE
  5
20C
330
A
100
AcDbEntity
  8
WARNER
  6
SOLID
 62
     7
100
AcDbLine
 10
-721.309635887
 20
-17.141611084
 30
0.0
 11
-721.309635887
 21
-75.29630593899999
 31
0.0
  0
LINE
  5
20D
330
A
100
AcDbEntity
  8
WARNER
  6
SOLID
 62
     7
100
AcDbLine
 10
-704.309635887
 20
-93.98735958299999
 30
0.0
 11
-704.309635887
 21
-117.141611084
 31
0.0
  0
LINE
  5
20E
330
A
100
AcDbEntity
  8
WARNER
  6
SOLID
 62
     7
100
AcDbLine
 10
-721.309635887
 20
-93.855229722
 30
0.0
 11
-721.309635887
 21
-117.141611084
 31
0.0
  0
LINE
  5
20F
330
A
100
AcDbEntity
  8
WARNER
  6
SOLID
 62
     7
100
AcDbLine
 10
-554.309635887
 20
-117.141875496
 30
0.0
 11
-571.309635887
 21
-117.141875496
 31
0.0
  0
LINE
  5
210
330
A
100
AcDbEntity
  8
WARNER
  6
CENTER
 62
     7
100
AcDbLine
 10
-562.809635887
 20
-62.664711104
 30
0.0
 11
-562.809635887
 21
-108.232127118
 31
0.0
  0
LINE
  5
211
330
A
100
AcDbEntity
  8
WARNER
  6
CENTER
 62
     7
100
AcDbLine
 10
-575.8826647330001
 20
-84.641890755
 30
0.0
 11
-546.289705766
 21
-84.641890755
 31
0.0
  0
LINE
  5
212
330
A
100
AcDbEntity
  8
WARNER
  6
SOLID
 62
     7
100
AcDbLine
 10
-554.309635887
 20
-57.141875496
 30
0.0
 11
-571.309635887
 21
-57.141875496
 31
0.0
  0
LINE
  5
213
330
A
100
AcDbEntity
  8
WARNER
  6
SOLID
 62
     7
100
AcDbLine
 10
-554.309635887
 20
-93.98735958299999
 30
0.0
 11
-554.309635887
 21
-117.141611084
 31
0.0
  0
LINE
  5
214
330
A
100
AcDbEntity
  8
WARNER
  6
SOLID
 62
     7
100
AcDbLine
 10
-571.309635887
 20
-17.141611084
 30
0.0
 11
-571.309635887
 21
-75.29630593899999
 31
0.0
  0
LINE
  5
215
330
A
100
AcDbEntity
  8
WARNER
  6
SOLID
 62
     7
100
AcDbLine
 10
-555.7770259159999
 20
-96.58093351299999
 30
0.0
 11
-548.953746917
 21
-84.52096432499999
 31
0.0
  0
LINE
  5
216
330
A
100
AcDbEntity
  8
WARNER
  6
SOLID
 62
     7
100
AcDbLine
 10
-548.953746963
 20
-84.52096397
 30
0.0
 11
-555.986347336
 21
-72.58184653499999
 31
0.0
  0
LINE
  5
217
330
A
100
AcDbEntity
  8
WARNER
  6
SOLID
 62
     7
100
AcDbLine
 10
-554.309635887
 20
-17.141611084
 30
0.0
 11
-554.309635887
 21
-75.428368991
 31
0.0
  0
LINE
  5
218
330
A
100
AcDbEntity
  8
WARNER
  6
SOLID
 62
     7
100
AcDbLine
 10
-555.986347295
 20
-72.58184617899999
 30
0.0
 11
-569.842226479
 21
-72.702697931
 31
0.0
  0
DIMENSION
  5
228
330
A
100
AcDbEntity
  8
WARNER
  6
SOLID
 62
     7
100
AcDbDimension
280
     0
  2
*D9
 10
-637.809570313
 20
-574.4218749999999
 30
0.0
 11
-580.555114746
 21
-559.421875
 31
0.0
 71
     5
 42
0.0
 73
     0
 74
     0
 75
     0
  3
9
100
AcDbAlignedDimension
 13
-452.8099670409999
 23
-377.1534729
 33
0.0
 14
-637.809570313
 24
-513.5321044919999
 34
0.0
100
AcDbRotatedDimension
  0
LINE
  5
229
330
A
100
AcDbEntity
  8
WARNER
  6
SOLID
 62
     7
100
AcDbLine
 10
-569.8422265789999
 20
-72.70269793199999
 30
0.0
 11
-576.665505577
 21
-84.76266712000001
 31
0.0
  0
DIMENSION
  5
23A
330
A
100
AcDbEntity
  8
WARNER
  6
SOLID
 62
     7
100
AcDbDimension
280
     0
  2
*D10
 10
-812.810180664
 20
603.916015625
 30
0.0
 11
-684.0516357419999
 21
618.9160156249999
 31
0.0
  1
%%c<>
 71
     5
 42
0.0
 73
     0
 74
     0
 75
     0
  3
10
100
AcDbAlignedDimension
 13
-462.810180664
 23
500.7329101559999
 33
0.0
 14
-812.810180664
 24
500.7329101559999
 34
0.0
100
AcDbRotatedDimension
  0
LINE
  5
23B
330
A
100
AcDbEntity
  8
WARNER
  6
SOLID
 62
     7
100
AcDbLine
 10
-576.665505531
 20
-84.762667475
 30
0.0
 11
-569.6329051589999
 21
-96.70178491000001
 31
0.0
  0
CIRCLE
  5
23C
330
A
100
AcDbEntity
  8
WARNER
  6
SOLID
 62
     7
100
AcDbCircle
 10
-562.809635887
 20
-84.641890755
 30
0.0
 40
11.979000635
  0
ARC
  5
23D
330
A
100
AcDbEntity
  8
WARNER
  6
SOLID
 62
     7
100
AcDbCircle
 10
-562.809635887
 20
-117.141611084
 30
0.0
 40
8.5
100
AcDbArc
 50
180.0
 51
0.0
  0
LINE
  5
23E
330
A
100
AcDbEntity
  8
WARNER
  6
SOLID
 62
     7
100
AcDbLine
 10
-569.632905199
 20
-96.701785266
 30
0.0
 11
-555.777026015
 21
-96.58093351399999
 31
0.0
  0
ARC
  5
23F
330
A
100
AcDbEntity
  8
WARNER
  6
SOLID
 62
     7
100
AcDbCircle
 10
-562.809635887
 20
-17.141611084
 30
0.0
 40
8.5
100
AcDbArc
 50
0.0
 51
180.0
  0
LINE
  5
240
330
A
100
AcDbEntity
  8
WARNER
  6
SOLID
 62
     7
100
AcDbLine
 10
-571.309635887
 20
-93.855229722
 30
0.0
 11
-571.309635887
 21
-117.141611084
 31
0.0
  0
LINE
  5
241
330
A
100
AcDbEntity
  8
WARNER
  6
SOLID
 62
     7
100
AcDbLine
 10
-523.809635887
 20
7.858388916
 30
0.0
 11
-523.809635887
 21
-277.037912353
 31
0.0
  0
LINE
  5
242
330
A
100
AcDbEntity
  8
WARNER
  6
SOLID
 62
     7
100
AcDbLine
 10
-527.809635887
 20
7.858388916
 30
0.0
 11
-527.809635887
 21
-280.955111874
 31
0.0
  0
LINE
  5
243
330
A
100
AcDbEntity
  8
WARNER
  6
SOLID
 62
     7
100
AcDbLine
 10
-751.809635887
 20
7.858388916
 30
0.0
 11
-523.809635887
 21
7.858388916
 31
0.0
  0
LINE
  5
244
330
A
100
AcDbEntity
  8
WARNER
  6
CENTER
 62
     7
100
AcDbLine
 10
-394.77690479
 20
-187.141875496
 30
0.0
 11
-878.3367718820001
 21
-187.141875496
 31
0.0
  0
LINE
  5
245
330
A
100
AcDbEntity
  8
WARNER
  6
CENTER
 62
     7
100
AcDbLine
 10
-394.77726768
 20
-187.141875496
 30
0.0
 11
-803.8362787849999
 21
-187.141875496
 31
0.0
  0
INSERT
  5
24E
330
A
100
AcDbEntity
  8
0
100
AcDbBlockReference
  2
*H1111
 10
0.0
 20
0.0
 30
0.0
  0
CIRCLE
  5
24F
330
A
100
AcDbEntity
  8
WARNER
  6
SOLID
 62
     7
100
AcDbCircle
 10
-637.809635887
 20
-279.838354672
 30
0.0
 40
3.499999939999999
  0
LINE
  5
250
330
A
100
AcDbEntity
  8
WARNER
  6
SOLID
 62
     7
100
AcDbLine
 10
-665.309635887
 20
-287.338354672
 30
0.0
 11
-650.309635887
 21
-287.338354672
 31
0.0
  0
LINE
  5
251
330
A
100
AcDbEntity
  8
WARNER
  6
SOLID
 62
     7
100
AcDbLine
 10
-665.309635887
 20
-293.33835491
 30
0.0
 11
-650.309635887
 21
-293.33835491
 31
0.0
  0
LINE
  5
252
330
A
100
AcDbEntity
  8
WARNER
  6
SOLID
 62
     7
100
AcDbLine
 10
-610.309180165
 20
-293.33835491
 30
0.0
 11
-625.3091801650001
 21
-293.33835491
 31
0.0
  0
LINE
  5
253
330
A
100
AcDbEntity
  8
WARNER
  6
SOLID
 62
     7
100
AcDbLine
 10
-610.309635887
 20
-287.338354672
 30
0.0
 11
-625.309635887
 21
-287.338354672
 31
0.0
  0
ARC
  5
254
330
A
100
AcDbEntity
  8
WARNER
  6
SOLID
 62
     7
100
AcDbCircle
 10
573.201859507
 20
-339.275526278
 30
0.0
 40
6.133973807999999
210
0.0
220
0.0
230
-1.0
100
AcDbArc
 50
55.61574831699999
 51
124.3842519229999
  0
ARC
  5
255
330
A
100
AcDbEntity
  8
WARNER
  6
SOLID
 62
     7
100
AcDbCircle
 10
562.809554883
 20
-356.069752383
 30
0.0
 40
22.928199891
210
0.0
220
0.0
230
-1.0
100
AcDbArc
 50
72.41204402699999
 51
99.55530427799999
  0
LINE
  5
256
330
A
100
AcDbEntity
  8
WARNER
  6
SOLID
 62
     7
100
AcDbLine
 10
-558.9776940619999
 20
-333.141581217
 30
0.0
 11
-573.2019176429999
 21
-333.141581217
 31
0.0
  0
LINE
  5
257
330
A
100
AcDbEntity
  8
WARNER
  6
SOLID
 62
     7
100
AcDbLine
 10
-702.417308326
 20
-333.141581217
 30
0.0
 11
-723.201917643
 21
-333.141581217
 31
0.0
  0
ARC
  5
258
330
A
100
AcDbEntity
  8
WARNER
  6
SOLID
 62
     7
100
AcDbCircle
 10
702.4172501889998
 20
-339.275526322
 30
0.0
 40
6.133973807999999
210
0.0
220
0.0
230
-1.0
100
AcDbArc
 50
55.61574831699999
 51
124.3842519229999
  0
ARC
  5
259
330
A
100
AcDbEntity
  8
WARNER
  6
SOLID
 62
     7
100
AcDbCircle
 10
712.809554883
 20
-356.069752383
 30
0.0
 40
22.928199891
210
0.0
220
0.0
230
-1.0
100
AcDbArc
 50
72.41204402699999
 51
107.587956213
  0
ARC
  5
25A
330
A
100
AcDbEntity
  8
WARNER
  6
SOLID
 62
     7
100
AcDbCircle
 10
723.201859507
 20
-339.275526278
 30
0.0
 40
6.133973807999999
210
0.0
220
0.0
230
-1.0
100
AcDbArc
 50
55.61574831699999
 51
124.3842519229999
  0
LINE
  5
25B
330
A
100
AcDbEntity
  8
WARNER
  6
SOLID
 62
     7
100
AcDbLine
 10
-551.3817778449999
 20
-319.432671208
 30
0.0
 11
-558.749214306
 21
-330.323664237
 31
0.0
  0
LINE
  5
25C
330
A
100
AcDbEntity
  8
WARNER
  6
SOLID
 62
     7
100
AcDbLine
 10
-535.0452883009999
 20
-288.040985417
 30
0.0
 11
-551.3817778449999
 21
-319.432671208
 31
0.0
  0
LINE
  5
25D
330
A
100
AcDbEntity
  8
WARNER
  6
SOLID
 62
     7
100
AcDbLine
 10
-523.809635887
 20
-277.037912353
 30
0.0
 11
-535.0452883009999
 21
-288.040985417
 31
0.0
  0
LINE
  5
25E
330
A
100
AcDbEntity
  8
WARNER
  6
SOLID
 62
     7
100
AcDbLine
 10
-747.809635887
 20
7.858388916
 30
0.0
 11
-747.809635887
 21
-187.141875496
 31
0.0
  0
LINE
  5
25F
330
A
100
AcDbEntity
  8
WARNER
  6
CENTER
 62
     7
100
AcDbLine
 10
-637.809998778
 20
200.120725318
 30
0.0
 11
-637.809998778
 21
-224.858437328
 31
0.0
  0
LWPOLYLINE
  5
260
330
A
100
AcDbEntity
  8
WARNER
  6
SOLID
 62
     7
100
AcDbPolyline
 90
       17
 70
     0
 43
0.0
 10
-602.809986974
 20
476.4972938369999
 10
-599.115265128
 20
476.1164501219999
 10
-595.481667635
 20
475.697734711
 10
-591.91493433
 20
475.2418090269999
 10
-588.4206994239999
 20
474.749393278
 10
-585.004482606
 20
474.221265311
 10
-581.671680324
 20
473.6582593869999
 10
-578.4275572599999
 20
473.06126486
 10
-575.277238011
 20
472.431224778
 10
-572.2256989979999
 20
471.7691343859999
 10
-569.277760604
 20
471.07603956
 10
-566.4380795569999
 20
470.3530351519999
 10
-563.7111415759999
 20
469.601263259
 10
-561.101254286
 20
468.8219114219999
 10
-558.6125404099999
 20
468.01621075
 10
-556.2489312599999
 20
467.1854339719999
 10
-554.0141605269999
 20
466.3308934289999
  0
LWPOLYLINE
  5
261
330
A
100
AcDbEntity
  8
WARNER
  6
SOLID
 62
     7
100
AcDbPolyline
 90
        9
 70
     0
 43
0.0
 10
-637.809986974
 20
478.141801807
 10
-634.652008914
 20
478.128833886
 10
-631.497181037
 20
478.0899430869999
 10
-628.348650384
 20
478.025168204
 10
-625.209557711
 20
477.9345738529999
 10
-622.083034364
 20
477.818250405
 10
-618.9721991449999
 20
477.676313895
 10
-615.8801552119999
 20
477.5089059099999
 10
-612.809986974
 20
477.316193444
  0
LINE
  5
262
330
A
100
AcDbEntity
  8
WARNER
  6
SOLID
 62
     7
100
AcDbLine
 10
-537.809988659
 20
452.141801807
 30
0.0
 11
-537.809988659
 21
421.3308395469999
 31
0.0
  0
LWPOLYLINE
  5
263
330
A
100
AcDbEntity
  8
WARNER
  6
SOLID
 62
     7
100
AcDbPolyline
 90
       17
 70
     0
 43
0.0
 10
-545.412206571
 20
462.0853992889999
 10
-544.502042826
 20
461.493229597
 10
-543.6480108009999
 20
460.8954343199999
 10
-542.850624262
 20
460.292373078
 10
-542.110362895
 20
459.6844086569999
 10
-541.427672024
 20
459.071906792
 10
-540.802962338
 20
458.4552359499999
 10
-540.236609648
 20
457.834767104
 10
-539.728954655
 20
457.210873513
 10
-539.280302754
 20
456.5839304949999
 10
-538.890923841
 20
455.9543152049999
 10
-538.561052158
 20
455.322406401
 10
-538.2908861469998
 20
454.688584226
 10
-538.0805883319999
 20
454.053229971
 10
-537.930285225
 20
453.4167258480001
 10
-537.840067243
 20
452.7794547619999
 10
-537.809988659
 20
452.1418000809999
  0
ARC
  5
264
330
A
100
AcDbEntity
  8
WARNER
  6
SOLID
 62
     7
100
AcDbCircle
 10
-682.957214679
 20
416.015438256
 30
0.0
 40
15.0
100
AcDbArc
 50
333.535712456
 51
20.754230638
  0
LWPOLYLINE
  5
265
330
A
100
AcDbEntity
  8
WARNER
  6
SOLID
 62
     7
100
AcDbPolyline
 90
       47
 70
     0
 43
0.0
 10
-547.049046843
 20
466.32836389
 10
-546.9506310599999
 20
466.325179692
 10
-546.8522512109999
 20
466.291125634
 10
-546.7539668479999
 20
466.2262223299999
 10
-546.655837471
 20
466.1305090709999
 10
-546.4602811539999
 20
465.846903063
 10
-546.266055715
 20
465.44099424
 10
-546.073631387
 20
464.913765333
 10
-545.883474041
 20
464.266492799
 10
-545.6960440609999
 20
463.5007437259999
 10
-545.511795226
 20
462.618372044
 10
-545.3311736169999
 20
461.621514032
 10
-545.1546165279999
 20
460.512583149
 10
-544.815394865
 20
457.969506783
 10
-544.4974133609999
 20
455.013755861
 10
-544.203749568
 20
451.673937325
 10
-543.937245682
 20
447.9823752779999
 10
-543.700481035
 20
443.974798141
 10
-543.49574713
 20
439.6899928519999
 10
-543.3250254639999
 20
435.169429475
 10
-543.189968349
 20
430.4568598369999
 10
-543.0918829230001
 20
425.597894078
 10
-543.0317184959999
 20
420.639559218
 10
-543.0100573629999
 20
415.62984401
 10
-543.027109169
 20
410.617234489
 10
-543.08270888
 20
405.6502446999999
 10
-543.17631838
 20
400.776947164
 10
-543.307031678
 20
396.044507609
 10
-543.473583679
 20
391.498728484
 10
-543.674362426
 20
387.183605663
 10
-543.9074247009999
 20
383.140902637
 10
-544.1705148339999
 20
379.409746306
 10
-544.461086534
 20
376.0262483
 10
-544.7763275299999
 20
373.023155469
 10
-545.113186795
 20
370.42953295
 10
-545.2887117689999
 20
369.294279191
 10
-545.468404068
 20
368.270482863
 10
-545.651828644
 20
367.360622642
 10
-545.838541415
 20
366.566901361
 10
-546.028090336
 20
365.89124067
 10
-546.2200164969999
 20
365.335276388
 10
-546.413855233
 20
364.9003545430001
 10
-546.6091372469999
 20
364.587528107
 10
-546.7071718409999
 20
364.477148949
 10
-546.805389748
 20
364.397554455
 10
-546.9037315099999
 20
364.348792807
 10
-547.002137596
 20
364.330893524
  0
LWPOLYLINE
  5
266
330
A
100
AcDbEntity
  8
WARNER
  6
SOLID
 62
     7
100
AcDbPolyline
 90
       23
 70
     0
 43
0.0
 10
-672.58220765
 20
409.3308396069999
 10
-672.5234639429999
 20
404.780716768
 10
-672.432725416
 20
400.3168465699999
 10
-672.310733906
 20
395.975723583
 10
-672.1584867609999
 20
391.792838855
 10
-671.9772286819999
 20
387.802389745
 10
-671.7684415549999
 20
384.0370003519999
 10
-671.5338323269999
 20
380.5274547830001
 10
-671.2753190569999
 20
377.3024454880001
 10
-670.995015232
 20
374.388338674
 10
-670.6952124869999
 20
371.808958752
 10
-670.378361875
 20
369.585393559
 10
-670.214348254
 20
368.612840242
 10
-670.0470538209999
 20
367.735821951
 10
-669.876820681
 20
366.956132128
 10
-669.703996949
 20
366.275365185
 10
-669.528936038
 20
365.694913244
 10
-669.3519959359999
 20
365.21596329
 10
-669.173538473
 20
364.8394947419999
 10
-668.993928583
 20
364.566277454
 10
-668.8135335540001
 20
364.396870135
 10
-668.723156851
 20
364.3512117869999
 10
-668.632722284
 20
364.331619213
  0
LWPOLYLINE
  5
267
330
A
100
AcDbEntity
  8
WARNER
  6
SOLID
 62
     7
100
AcDbPolyline
 90
       76
 70
     0
 43
0.0
 10
-668.68602976
 20
364.340012382
 10
-668.541866378
 20
364.338191134
 10
-668.397791479
 20
364.402606415
 10
-668.253992208
 20
364.533174551
 10
-668.110655352
 20
364.729725943
 10
-667.9679670969999
 20
364.992005281
 10
-667.826112788
 20
365.319671879
 10
-667.6852766859999
 20
365.712300116
 10
-667.5456417280001
 20
366.169379991
 10
-667.2706989619999
 20
367.274436822
 10
-667.0027125669999
 20
368.629102609
 10
-666.743074489
 20
370.2263410980001
 10
-666.49313331
 20
372.0578560919999
 10
-666.254187247
 20
374.114134541
 10
-666.027477407
 20
376.384495953
 10
-665.81418134
 20
378.857147873
 10
-665.615406925
 20
381.519247127
 10
-665.432186614
 20
384.356966538
 10
-665.26547207
 20
387.3555667430001
 10
-665.1161292219999
 20
390.499472746
 10
-664.98493377
 20
393.772354825
 10
-664.8725671549999
 20
397.157213341
 10
-664.77961302
 20
400.6364670409999
 10
-664.7065541749999
 20
404.192044375
 10
-664.653770095
 20
407.8054773619999
 10
-664.621534946
 20
411.4579975119999
 10
-664.6100161589999
 20
415.1306333149999
 10
-664.6192735639999
 20
418.8043087769999
 10
-664.649259078
 20
422.459942505
 10
-664.6998169519999
 20
426.0785468139999
 10
-664.770684585
 20
429.6413263549999
 10
-664.8614938839999
 20
433.129775739
 10
-664.971773178
 20
436.525775652
 10
-665.100949666
 20
439.8116869709999
 10
-665.2483523949999
 20
442.970442384
 10
-665.41321574
 20
445.9856350369999
 10
-665.5946833889999
 20
448.841603754
 10
-665.7918127809999
 20
451.523514383
 10
-666.0035800099999
 20
454.017436843
 10
-666.228885137
 20
456.310417482
 10
-666.466557909
 20
458.3905463559999
 10
-666.715363831
 20
460.247019093
 10
-666.9740105839999
 20
461.87019301
 10
-667.241154735
 20
463.2516371999999
 10
-667.5154087119999
 20
464.384176318
 10
-667.65475797
 20
464.855216809
 10
-667.7953480159999
 20
465.261927858
 10
-667.936996229
 20
465.603781171
 10
-668.0795186180001
 20
465.8803326999999
 10
-668.2227300530001
 20
466.09122322
 10
-668.3664445109999
 20
466.236178796
 10
-668.510475315
 20
466.315011139
 10
-668.6546353769999
 20
466.32761785
 10
-668.7987374409999
 20
466.273982553
 10
-668.9425943269999
 20
466.154174918
 10
-669.0860191719999
 20
465.968350568
 10
-669.2288256759999
 20
465.716750879
 10
-669.370828341
 20
465.3997026649999
 10
-669.511842714
 20
465.0176177519999
 10
-669.790175426
 20
464.060406896
 10
-670.062378127
 20
462.850090148
 10
-670.327036971
 20
461.3929539999999
 10
-670.582777299
 20
459.6965669459999
 10
-670.828270771
 20
457.769740169
 10
-671.062242274
 20
455.6224817759999
 10
-671.2834765380001
 20
453.265944817
 10
-671.4908244540001
 20
450.712369353
 10
-671.6832090380001
 20
447.9750188789999
 10
-671.859631028
 20
445.068111435
 10
-672.0191740719999
 20
442.006745753
 10
-672.1610094899999
 20
438.8068228359999
 10
-672.2844005749999
 20
435.4849633659999
 10
-672.388706425
 20
432.058421373
 10
-672.473385265
 20
428.544994618
 10
-672.5379972659999
 20
424.962932148
 10
-672.5822068269999
 20
421.3308395119999
  0
LINE
  5
268
330
A
100
AcDbEntity
  8
WARNER
  6
CENTER
 62
     7
100
AcDbLine
 10
-607.809986974
 20
341.234925336
 30
0.0
 11
-607.809986974
 21
417.744254934
 31
0.0
  0
LINE
  5
269
330
A
100
AcDbEntity
  8
WARNER
  6
SOLID
 62
     7
100
AcDbLine
 10
-630.809986974
 20
359.276848044
 30
0.0
 11
-630.809986974
 21
366.330893429
 31
0.0
  0
LINE
  5
26A
330
A
100
AcDbEntity
  8
WARNER
  6
SOLID
 62
     7
100
AcDbLine
 10
-668.6178340769999
 20
364.330893429
 30
0.0
 11
-630.809986974
 21
364.330893429
 31
0.0
  0
LINE
  5
26B
330
A
100
AcDbEntity
  8
WARNER
  6
SOLID
 62
     7
100
AcDbLine
 10
-630.809986974
 20
359.276848044
 30
0.0
 11
-617.809986974
 21
359.276848044
 31
0.0
  0
LINE
  5
26C
330
A
100
AcDbEntity
  8
WARNER
  6
CENTER
 62
     7
100
AcDbLine
 10
-567.809986974
 20
351.681511059
 30
0.0
 11
-567.809986974
 21
375.972360037
 31
0.0
  0
LINE
  5
26D
330
A
100
AcDbEntity
  8
WARNER
  6
CENTER
 62
     7
100
AcDbLine
 10
-647.809986974
 20
351.681511059
 30
0.0
 11
-647.809986974
 21
375.972360037
 31
0.0
  0
LINE
  5
26E
330
A
100
AcDbEntity
  8
WARNER
  6
SOLID
 62
     7
100
AcDbLine
 10
-630.809986974
 20
361.272067876
 30
0.0
 11
-617.809986974
 21
363.272067876
 31
0.0
  0
LINE
  5
26F
330
A
100
AcDbEntity
  8
WARNER
  6
SOLID
 62
     7
100
AcDbLine
 10
-584.809986974
 20
366.330893429
 30
0.0
 11
-597.809986974
 21
368.330893429
 31
0.0
  0
LINE
  5
270
330
A
100
AcDbEntity
  8
WARNER
  6
SOLID
 62
     7
100
AcDbLine
 10
-584.809986974
 20
359.276848044
 30
0.0
 11
-597.809986974
 21
359.276848044
 31
0.0
  0
LINE
  5
271
330
A
100
AcDbEntity
  8
WARNER
  6
SOLID
 62
     7
100
AcDbLine
 10
-584.809986974
 20
361.272067876
 30
0.0
 11
-597.809986974
 21
363.272067876
 31
0.0
  0
LINE
  5
272
330
A
100
AcDbEntity
  8
WARNER
  6
SOLID
 62
     7
100
AcDbLine
 10
-584.809986974
 20
359.276848044
 30
0.0
 11
-584.809986974
 21
366.330893429
 31
0.0
  0
LINE
  5
273
330
A
100
AcDbEntity
  8
WARNER
  6
SOLID
 62
     7
100
AcDbLine
 10
-597.809986974
 20
354.330893429
 30
0.0
 11
-597.809986974
 21
379.330893429
 31
0.0
  0
LINE
  5
274
330
A
100
AcDbEntity
  8
WARNER
  6
SOLID
 62
     7
100
AcDbLine
 10
-617.809986974
 20
354.330893429
 30
0.0
 11
-617.809986974
 21
379.330893429
 31
0.0
  0
LINE
  5
275
330
A
100
AcDbEntity
  8
WARNER
  6
SOLID
 62
     7
100
AcDbLine
 10
-617.809986974
 20
354.330893429
 30
0.0
 11
-597.809986974
 21
354.330893429
 31
0.0
  0
LINE
  5
276
330
A
100
AcDbEntity
  8
WARNER
  6
SOLID
 62
     7
100
AcDbLine
 10
-617.809986974
 20
379.330893429
 30
0.0
 11
-597.809986974
 21
379.330893429
 31
0.0
  0
LINE
  5
277
330
A
100
AcDbEntity
  8
WARNER
  6
SOLID
 62
     7
100
AcDbLine
 10
-657.809986974
 20
343.330893429
 30
0.0
 11
-632.809986974
 21
343.330893429
 31
0.0
  0
LWPOLYLINE
  5
278
330
A
100
AcDbEntity
  8
WARNER
  6
SOLID
 62
     7
100
AcDbPolyline
 90
       28
 70
     0
 43
0.0
 10
-610.808525044
 20
364.326906769
 10
-610.785984178
 20
364.133592352
 10
-610.73546989
 20
363.942641583
 10
-610.657456966
 20
363.7558492230001
 10
-610.552678657
 20
363.574970946
 10
-610.42211978
 20
363.401706839
 10
-610.2670074679999
 20
363.237685424
 10
-610.088799633
 20
363.084448351
 10
-609.889171262
 20
362.943435904
 10
-609.669998676
 20
362.81597347
 10
-609.433341894
 20
362.703259078
 10
-608.916616587
 20
362.526163484
 10
-608.3583766409999
 20
362.4187916119999
 10
-607.779560486
 20
362.385170761
 10
-607.201878324
 20
362.42656198
 10
-606.6469978219999
 20
362.541412768
 10
-606.3846671799999
 20
362.625143205
 10
-606.135731404
 20
362.72541531
 10
-605.90253026
 20
362.84128662
 10
-605.687255621
 20
362.97166805
 10
-605.491930869
 20
363.115334137
 10
-605.318391874
 20
363.270934554
 10
-605.168269743
 20
363.437006801
 10
-605.042975483
 20
363.6119899530001
 10
-604.943686745
 20
363.794239331
 10
-604.8713367499999
 20
363.982041961
 10
-604.82660552
 20
364.173632672
 10
-604.809913488
 20
364.36721069
  0
LINE
  5
279
330
A
100
AcDbEntity
  8
WARNER
  6
SOLID
 62
     7
100
AcDbLine
 10
-582.8099869739999
 20
343.330893429
 30
0.0
 11
-582.8099869739999
 21
364.330893429
 31
0.0
  0
LINE
  5
27A
330
A
100
AcDbEntity
  8
WARNER
  6
SOLID
 62
     7
100
AcDbLine
 10
-632.809986974
 20
343.330893429
 30
0.0
 11
-632.809986974
 21
364.330893429
 31
0.0
  0
LINE
  5
27B
330
A
100
AcDbEntity
  8
WARNER
  6
SOLID
 62
     7
100
AcDbLine
 10
-557.8099869739999
 20
343.330893429
 30
0.0
 11
-557.8099869739999
 21
364.330893429
 31
0.0
  0
LINE
  5
27C
330
A
100
AcDbEntity
  8
WARNER
  6
SOLID
 62
     7
100
AcDbLine
 10
-657.809986974
 20
343.330893429
 30
0.0
 11
-657.809986974
 21
364.330893429
 31
0.0
  0
LINE
  5
27D
330
A
100
AcDbEntity
  8
WARNER
  6
SOLID
 62
     7
100
AcDbLine
 10
-582.8099869739999
 20
343.330893429
 30
0.0
 11
-557.8099869739999
 21
343.330893429
 31
0.0
  0
LINE
  5
27E
330
A
100
AcDbEntity
  8
WARNER
  6
SOLID
 62
     7
100
AcDbLine
 10
-547.0021398699999
 20
364.330893429
 30
0.0
 11
-584.809986974
 21
364.330893429
 31
0.0
  0
LINE
  5
27F
330
A
100
AcDbEntity
  8
WARNER
  6
SOLID
 62
     7
100
AcDbLine
 10
-630.809986974
 20
366.330893429
 30
0.0
 11
-617.809986974
 21
368.330893429
 31
0.0
  0
ARC
  5
280
330
A
100
AcDbEntity
  8
WARNER
  6
SOLID
 62
     7
100
AcDbCircle
 10
-627.391064881
 20
103.641212628
 30
0.0
 40
200.0
100
AcDbArc
 50
123.167919956
 51
134.595299078
  0
ARC
  5
281
330
A
100
AcDbEntity
  8
WARNER
  6
SOLID
 62
     7
100
AcDbCircle
 10
-627.391064881
 20
93.64121262799999
 30
0.0
 40
200.0
100
AcDbArc
 50
123.167919956
 51
134.595299078
  0
ARC
  5
282
330
A
100
AcDbEntity
  8
WARNER
  6
SOLID
 62
     7
100
AcDbCircle
 10
-627.391064881
 20
83.64121262800001
 30
0.0
 40
200.0
100
AcDbArc
 50
123.167919956
 51
134.595299078
  0
ARC
  5
283
330
A
100
AcDbEntity
  8
WARNER
  6
SOLID
 62
     7
100
AcDbCircle
 10
-627.391064881
 20
73.64121262800001
 30
0.0
 40
200.0
100
AcDbArc
 50
123.167919956
 51
134.595299078
  0
ARC
  5
284
330
A
100
AcDbEntity
  8
WARNER
  6
SOLID
 62
     7
100
AcDbCircle
 10
-627.391064881
 20
63.64121262800001
 30
0.0
 40
200.0
100
AcDbArc
 50
123.167919956
 51
134.595299078
  0
LINE
  5
285
330
A
100
AcDbEntity
  8
WARNER
  6
SOLID
 62
     7
100
AcDbLine
 10
-765.8099911489999
 20
258.002567743
 30
0.0
 11
-765.8099911489999
 21
208.002567743
 31
0.0
  0
LINE
  5
286
330
A
100
AcDbEntity
  8
WARNER
  6
SOLID
 62
     7
100
AcDbLine
 10
-762.3099911489999
 20
261.278888492
 30
0.0
 11
-762.3099911489999
 21
211.278888492
 31
0.0
  0
LINE
  5
287
330
A
100
AcDbEntity
  8
WARNER
  6
SOLID
 62
     7
100
AcDbLine
 10
-757.3099911489999
 20
265.697362117
 30
0.0
 11
-757.3099911489999
 21
215.697362117
 31
0.0
  0
LINE
  5
288
330
A
100
AcDbEntity
  8
WARNER
  6
SOLID
 62
     7
100
AcDbLine
 10
-750.8099911489999
 20
271.019002163
 30
0.0
 11
-750.8099911489999
 21
221.019002163
 31
0.0
  0
LINE
  5
289
330
A
100
AcDbEntity
  8
WARNER
  6
SOLID
 62
     7
100
AcDbLine
 10
-743.809991149
 20
276.265422408
 30
0.0
 11
-743.809991149
 21
226.265422408
 31
0.0
  0
ARC
  5
28A
330
A
100
AcDbEntity
  8
WARNER
  6
SOLID
 62
     7
100
AcDbCircle
 10
-627.391064881
 20
113.641212628
 30
0.0
 40
200.0
100
AcDbArc
 50
123.167919956
 51
134.595299078
  0
LINE
  5
28B
330
A
100
AcDbEntity
  8
WARNER
  6
SOLID
 62
     7
100
AcDbLine
 10
-538.809991149
 20
281.055365478
 30
0.0
 11
-538.809991149
 21
231.055365478
 31
0.0
  0
ARC
  5
28C
330
A
100
AcDbEntity
  8
WARNER
  6
SOLID
 62
     7
100
AcDbCircle
 10
-648.2289174169999
 20
113.641212628
 30
0.0
 40
200.0
100
AcDbArc
 50
45.40470092199999
 51
56.83208004399999
  0
ARC
  5
28D
330
A
100
AcDbEntity
  8
WARNER
  6
SOLID
 62
     7
100
AcDbCircle
 10
-648.2289174169999
 20
103.641212628
 30
0.0
 40
200.0
100
AcDbArc
 50
45.40470092199999
 51
56.83208004399999
  0
ARC
  5
28E
330
A
100
AcDbEntity
  8
WARNER
  6
SOLID
 62
     7
100
AcDbCircle
 10
-648.2289174169999
 20
93.64121262799999
 30
0.0
 40
200.0
100
AcDbArc
 50
45.40470092199999
 51
56.83208004399999
  0
ARC
  5
28F
330
A
100
AcDbEntity
  8
WARNER
  6
SOLID
 62
     7
100
AcDbCircle
 10
-648.2289174169999
 20
83.64121262800001
 30
0.0
 40
200.0
100
AcDbArc
 50
45.40470092199999
 51
56.83208004399999
  0
ARC
  5
290
330
A
100
AcDbEntity
  8
WARNER
  6
SOLID
 62
     7
100
AcDbCircle
 10
-648.2289174169999
 20
73.64121262800001
 30
0.0
 40
200.0
100
AcDbArc
 50
45.40470092199999
 51
56.83208004399999
  0
ARC
  5
291
330
A
100
AcDbEntity
  8
WARNER
  6
SOLID
 62
     7
100
AcDbCircle
 10
-648.2289174169999
 20
63.64121262800001
 30
0.0
 40
200.0
100
AcDbArc
 50
45.40470092199999
 51
56.83208004399999
  0
LINE
  5
292
330
A
100
AcDbEntity
  8
WARNER
  6
SOLID
 62
     7
100
AcDbLine
 10
-509.809991149
 20
258.002567743
 30
0.0
 11
-509.809991149
 21
208.002567743
 31
0.0
  0
LINE
  5
293
330
A
100
AcDbEntity
  8
WARNER
  6
SOLID
 62
     7
100
AcDbLine
 10
-513.3099911489999
 20
261.278888492
 30
0.0
 11
-513.3099911489999
 21
211.278888492
 31
0.0
  0
LINE
  5
294
330
A
100
AcDbEntity
  8
WARNER
  6
SOLID
 62
     7
100
AcDbLine
 10
-518.309991149
 20
265.697362117
 30
0.0
 11
-518.309991149
 21
215.697362117
 31
0.0
  0
LINE
  5
295
330
A
100
AcDbEntity
  8
WARNER
  6
SOLID
 62
     7
100
AcDbLine
 10
-524.8099911489999
 20
271.019002163
 30
0.0
 11
-524.8099911489999
 21
221.019002163
 31
0.0
  0
LINE
  5
296
330
A
100
AcDbEntity
  8
WARNER
  6
SOLID
 62
     7
100
AcDbLine
 10
-531.809991149
 20
276.265422408
 30
0.0
 11
-531.809991149
 21
226.265422408
 31
0.0
  0
LINE
  5
297
330
A
100
AcDbEntity
  8
WARNER
  6
SOLID
 62
     7
100
AcDbLine
 10
-727.809991149
 20
313.597615707
 30
0.0
 11
-727.809991149
 21
209.307649264
 31
0.0
  0
ARC
  5
298
330
A
100
AcDbEntity
  8
WARNER
  6
SOLID
 62
     7
100
AcDbCircle
 10
-724.8099911489999
 20
313.597615707
 30
0.0
 40
3.0
100
AcDbArc
 50
90.0
 51
180.0
  0
LINE
  5
299
330
A
100
AcDbEntity
  8
WARNER
  6
SOLID
 62
     7
100
AcDbLine
 10
-637.8099911489999
 20
316.597615707
 30
0.0
 11
-724.8099911489999
 21
316.597615707
 31
0.0
  0
LINE
  5
29A
330
A
100
AcDbEntity
  8
WARNER
  6
SOLID
 62
     7
100
AcDbLine
 10
-550.8099911489999
 20
316.597615707
 30
0.0
 11
-637.8099911489999
 21
316.597615707
 31
0.0
  0
LINE
  5
29B
330
A
100
AcDbEntity
  8
WARNER
  6
SOLID
 62
     7
100
AcDbLine
 10
-547.809991149
 20
313.597615707
 30
0.0
 11
-547.809991149
 21
51.097050616
 31
0.0
  0
ARC
  5
29C
330
A
100
AcDbEntity
  8
WARNER
  6
SOLID
 62
     7
100
AcDbCircle
 10
-550.8099911489999
 20
313.597615707
 30
0.0
 40
3.0
100
AcDbArc
 50
0.0
 51
90.0
  0
LINE
  5
29D
330
A
100
AcDbEntity
  8
WARNER
  6
SOLID
 62
     7
100
AcDbLine
 10
-507.809991149
 20
236.597732954
 30
0.0
 11
-507.809991149
 21
22.089759244
 31
0.0
  0
LINE
  5
29E
330
A
100
AcDbEntity
  8
WARNER
  6
SOLID
 62
     7
100
AcDbLine
 10
-767.809991149
 20
235.880211469
 30
0.0
 11
-767.809991149
 21
22.089759244
 31
0.0
  0
LINE
  5
29F
330
A
100
AcDbEntity
  8
WARNER
  6
SOLID
 62
     7
100
AcDbLine
 10
-727.809991149
 20
209.307649264
 30
0.0
 11
-727.809991149
 21
51.097050616
 31
0.0
  0
LINE
  5
2A0
330
A
100
AcDbEntity
  8
WARNER
  6
SOLID
 62
     7
100
AcDbLine
 10
-736.809982799
 20
281.055365478
 30
0.0
 11
-736.809982799
 21
231.055365478
 31
0.0
  0
LWPOLYLINE
  5
2A1
330
A
100
AcDbEntity
  8
WARNER
  6
SOLID
 62
     7
100
AcDbPolyline
 90
       85
 70
     0
 43
0.0
 10
-507.814219409
 20
309.314152995
 10
-507.827768583
 20
309.707648106
 10
-507.919937298
 20
310.100983205
 10
-508.090669803
 20
310.493920385
 10
-508.339862833
 20
310.886221978
 10
-508.667365663
 20
311.2776507
 10
-509.072980203
 20
311.667969798
 10
-509.556461119
 20
312.056943187
 10
-510.117515978
 20
312.444335597
 10
-510.755805426
 20
312.829912714
 10
-511.4709433949999
 20
313.213441324
 10
-512.262497335
 20
313.594689448
 10
-513.1299884759999
 20
313.973426491
 10
-514.072892118
 20
314.349423372
 10
-515.090637947
 20
314.722452672
 10
-516.18261038
 20
315.092288765
 10
-517.34814894
 20
315.4587079540001
 10
-518.586548654
 20
315.821488613
 10
-519.8970604759999
 20
316.180411314
 10
-521.278891746
 20
316.535258963
 10
-522.7312066659999
 20
316.8858169309999
 10
-525.8437316319999
 20
317.57321841
 10
-529.227106091
 20
318.240952908
 10
-532.8731455659999
 20
318.887405157
 10
-536.7730301869999
 20
319.51101137
 10
-540.9173260259999
 20
320.110263027
 10
-545.296007915
 20
320.683710522
 10
-549.898483702
 20
321.22996667
 10
-554.7136198719999
 20
321.747710061
 10
-559.729768476
 20
322.23568826
 10
-564.934795313
 20
322.692720834
 10
-570.316109279
 20
323.117702209
 10
-575.8606928269999
 20
323.509604343
 10
-581.555133455
 20
323.867479215
 10
-587.385656154
 20
324.190461114
 10
-593.33815673
 20
324.477768739
 10
-599.3982359169999
 20
324.728707085
 10
-605.551234218
 20
324.942669124
 10
-611.78226736
 20
325.119137277
 10
-618.0762622999999
 20
325.257684663
 10
-624.417993691
 20
325.357976131
 10
-630.7921207099999
 20
325.419769074
 10
-637.1832241669999
 20
325.442914012
 10
-643.5758438059999
 20
325.427354959
 10
-649.954515703
 20
325.37312955
 10
-656.303809676
 20
325.280368959
 10
-662.608366605
 20
325.149297577
 10
-668.852935595
 20
324.980232469
 10
-675.022410859
 20
324.7735826079999
 10
-681.101868267
 20
324.529847886
 10
-687.076601443
 20
324.249617903
 10
-692.932157342
 20
323.933570544
 10
-698.654371212
 20
323.582470336
 10
-704.229400861
 20
323.197166601
 10
-709.6437601369999
 20
322.778591398
 10
-714.8843515560001
 20
322.327757272
 10
-719.938497981
 20
321.845754805
 10
-724.7939732939999
 20
321.333749972
 10
-729.439031965
 20
320.7929813290001
 10
-733.8624374689999
 20
320.224757009
 10
-738.053489465
 20
319.630451562
 10
-742.002049683
 20
319.01150263
 10
-745.6985664469999
 20
318.369407468
 10
-749.13409778
 20
317.705719321
 10
-752.3003330369999
 20
317.02204367
 10
-753.7800451689999
 20
316.673225571
 10
-755.1896130069999
 20
316.320034344
 10
-756.528183976
 20
315.962683613
 10
-757.7949484439999
 20
315.601389524
 10
-758.989140209
 20
315.236370602
 10
-760.1100369660001
 20
314.867847631
 10
-761.1569607449999
 20
314.496043509
 10
-762.129278313
 20
314.121183123
 10
-763.0264015669999
 20
313.743493206
 10
-763.847787883
 20
313.363202204
 10
-764.5929404469999
 20
312.980540133
 10
-765.2614085539998
 20
312.595738448
 10
-765.852787883
 20
312.209029895
 10
-766.366720738
 20
311.820648373
 10
-766.8028962689999
 20
311.430828795
 10
-767.161050656
 20
311.039806943
 10
-767.440967268
 20
310.647819325
 10
-767.6424767999999
 20
310.255103034
 10
-767.7654573669999
 20
309.861895605
 10
-767.8098345869999
 20
309.468434868
  0
LWPOLYLINE
  5
2A2
330
A
100
AcDbEntity
  8
WARNER
  6
SOLID
 62
     7
100
AcDbPolyline
 90
       85
 70
     0
 43
0.0
 10
-507.8206301609999
 20
325.238467668
 10
-507.819267518
 20
325.634170842
 10
-507.8974130089999
 20
326.029757148
 10
-508.055018837
 20
326.424984628
 10
-508.291988604
 20
326.819611544
 10
-508.608177367
 20
327.213396524
 10
-509.003391733
 20
327.606098711
 10
-509.4773899689999
 20
327.997477912
 10
-510.029882157
 20
328.387294742
 10
-510.66053037
 20
328.77531077
 10
-511.368948873
 20
329.16128867
 10
-512.154704367
 20
329.544992359
 10
-513.017316248
 20
329.926187148
 10
-513.956256905
 20
330.30463988
 10
-514.97095204
 20
330.680119078
 10
-516.060781019
 20
331.052395081
 10
-517.2250772539999
 20
331.421240188
 10
-518.463128611
 20
331.786428798
 10
-519.774177841
 20
332.147737545
 10
-521.157423049
 20
332.504945437
 10
-522.6120181789999
 20
332.857833988
 10
-525.7316563309999
 20
333.549792475
 10
-529.125461022
 20
334.221920335
 10
-532.785130314
 20
334.872573405
 10
-536.7017119069999
 20
335.500160054
 10
-540.86562504
 20
336.103145079
 10
-545.266683933
 20
336.680053453
 10
-549.8941226929999
 20
337.229473941
 10
-554.7366216609999
 20
337.750062549
 10
-559.7823350919999
 20
338.24054581
 10
-565.0189201419999
 20
338.699723901
 10
-570.4335670499999
 20
339.126473579
 10
-576.0130304849999
 20
339.519750928
 10
-581.743661938
 20
339.87859391
 10
-587.6114431119999
 20
340.202124722
 10
-593.602020215
 20
340.489551941
 10
-599.70073907
 20
340.740172463
 10
-605.8926809639999
 20
340.953373217
 10
-612.1626991409999
 20
341.128632671
 10
-618.495455854
 20
341.265522105
 10
-624.875459885
 20
341.363706659
 10
-631.287104441
 20
341.422946154
 10
-637.7147053269999
 20
341.443095677
 10
-644.142539317
 20
341.424105939
 10
-650.554882615
 20
341.366023393
 10
-656.936049318
 20
341.26899012
 10
-663.270429788
 20
341.133243484
 10
-669.542528834
 20
340.959115548
 10
-675.73700362
 20
340.747032266
 10
-681.838701194
 20
340.497512436
 10
-687.8326955560001
 20
340.211166435
 10
-693.7043241699999
 20
339.888694723
 10
-699.4392238319999
 20
339.530886133
 10
-705.023365805
 20
339.138615937
 10
-710.443090135
 20
338.712843709
 10
-715.6851390679999
 20
338.254610974
 10
-720.7366894819999
 20
337.765038664
 10
-725.5853842499999
 20
337.245324372
 10
-730.2193624739999
 20
336.696739425
 10
-734.627288496
 20
336.120625776
 10
-738.798379626
 20
335.518392715
 10
-742.722432525
 20
334.891513428
 10
-746.389848154
 20
334.241521389
 10
-749.791655267
 20
333.570006613
 10
-752.9195323469999
 20
332.878611761
 10
-754.3783293560001
 20
332.525986049
 10
-755.765827968
 20
332.169028127
 10
-757.081179528
 20
331.807956328
 10
-758.3235795080001
 20
331.442991498
 10
-759.4922679999999
 20
331.0743568659999
 10
-760.586530183
 20
330.702277906
 10
-761.6056967569999
 20
330.326982199
 10
-762.5491443549999
 20
329.948699291
 10
-763.416295921
 20
329.567660557
 10
-764.206621067
 20
329.184099058
 10
-764.9196363939998
 20
328.798249397
 10
-765.554905792
 20
328.410347576
 10
-766.1120407000001
 20
328.020630855
 10
-766.59070035
 20
327.6293376
 10
-766.990591973
 20
327.236707145
 10
-767.311470976
 20
326.84297964
 10
-767.5531410969999
 20
326.448395906
 10
-767.715454518
 20
326.053197287
 10
-767.7983119619999
 20
325.6576255070001
 10
-767.8016627489999
 20
325.261922512
  0
LINE
  5
2A3
330
A
100
AcDbEntity
  8
WARNER
  6
SOLID
 62
     7
100
AcDbLine
 10
-507.809834634
 20
325.441615249
 30
0.0
 11
-507.809834634
 21
235.610302694
 31
0.0
  0
LINE
  5
2A4
330
A
100
AcDbEntity
  8
WARNER
  6
SOLID
 62
     7
100
AcDbLine
 10
-767.8098346339999
 20
325.468431447
 30
0.0
 11
-767.8098346339999
 21
235.879847156
 31
0.0
  0
DIMENSION
  5
2B4
330
A
100
AcDbEntity
  8
WARNER
  6
SOLID
 62
     7
100
AcDbDimension
280
     0
  2
*D12
 10
-925.8096313480001
 20
-649.68536377
 30
0.0
 11
-702.0549926760001
 21
-634.6853637699999
 31
0.0
  1
  520   
 71
     5
 42
0.0
 73
     0
 74
     0
 75
     0
  3
11
100
AcDbAlignedDimension
 13
-407.809631348
 23
-367.1418457030001
 33
0.0
 14
-925.8096313480001
 24
-189.83996582
 34
0.0
100
AcDbRotatedDimension
  0
LINE
  5
2B5
330
A
100
AcDbEntity
  8
WARNER
  6
SOLID
 62
     7
100
AcDbLine
 10
-785.8096375989999
 20
-306.664576992
 30
0.0
 11
-785.841387671
 21
-306.719569716
 31
0.0
  0
LWPOLYLINE
  5
2B6
330
A
100
AcDbEntity
  8
WARNER
  6
SOLID
 62
     7
100
AcDbPolyline
 90
        2
 70
     0
 43
0.0
 10
-785.809620125
 20
-307.310215103
 10
-785.829243178
 20
-306.698567523
  0
LINE
  5
2B7
330
A
100
AcDbEntity
  8
WARNER
  6
SOLID
 62
     7
100
AcDbLine
 10
-785.8096376719999
 20
-307.310212801
 30
0.0
 11
-785.8096375989999
 21
-306.664576979
 31
0.0
  0
LINE
  5
2B8
330
A
100
AcDbEntity
  8
WARNER
  6
SOLID
 62
     7
100
AcDbLine
 10
-785.8096380610001
 20
-310.754219044
 30
0.0
 11
-785.8413881339998
 21
-310.809211768
 31
0.0
  0
LINE
  5
2B9
330
A
100
AcDbEntity
  8
WARNER
  6
SOLID
 62
     7
100
AcDbLine
 10
-785.8096362539998
 20
-294.775210146
 30
0.0
 11
-785.8096356819999
 21
-289.719216459
 31
0.0
  0
LINE
  5
2BA
330
A
100
AcDbEntity
  8
WARNER
  6
SOLID
 62
     7
100
AcDbLine
 10
-785.809635676
 20
-289.664577336
 30
0.0
 11
-785.841385736
 21
-289.609584604
 31
0.0
  0
LINE
  5
2BB
330
A
100
AcDbEntity
  8
WARNER
  6
SOLID
 62
     7
100
AcDbLine
 10
-785.8096356819999
 20
-289.719216561
 30
0.0
 11
-785.809635676
 21
-289.664577334
 31
0.0
  0
LINE
  5
2BC
330
A
100
AcDbEntity
  8
WARNER
  6
SOLID
 62
     7
100
AcDbLine
 10
-785.8096372089999
 20
-303.220570749
 30
0.0
 11
-785.8096362539998
 21
-294.775209976
 31
0.0
  0
DIMENSION
  5
2CD
330
A
100
AcDbEntity
  8
WARNER
  6
SOLID
 62
     7
100
AcDbDimension
280
     0
  2
*D13
 10
-984.94744873
 20
-322.141845703
 30
0.0
 11
-999.94744873
 21
-235.637237549
 31
0.0
  1
 %%c 285   
 71
     5
 42
0.0
 73
     0
 74
     0
 75
     0
  3
12
100
AcDbAlignedDimension
 13
-907.277648926
 23
-52.141876221
 33
0.0
 14
-907.277709961
 24
-322.141845703
 34
0.0
 50
90.0
100
AcDbRotatedDimension
  0
LINE
  5
2CE
330
A
100
AcDbEntity
  8
WARNER
  6
CENTER
 62
     7
100
AcDbLine
 10
-425.9449596399999
 20
-187.141875496
 30
0.0
 11
-925.8096240829999
 21
-187.141875496
 31
0.0
  0
LINE
  5
2CF
330
A
100
AcDbEntity
  8
WARNER
  6
SOLID
 62
     7
100
AcDbLine
 10
-785.8096297019999
 20
-236.834352681
 30
0.0
 11
-785.8096289289999
 21
-230.001569366
 31
0.0
  0
LINE
  5
2D0
330
A
100
AcDbEntity
  8
WARNER
  6
SOLID
 62
     7
100
AcDbLine
 10
-785.809629782
 20
-237.539342035
 30
0.0
 11
-785.8096297019999
 21
-236.834352667
 31
0.0
  0
LINE
  5
2D1
330
A
100
AcDbEntity
  8
WARNER
  6
SOLID
 62
     7
100
AcDbLine
 10
-785.809629782
 20
-237.539342035
 30
0.0
 11
-786.253467533
 21
-238.308091369
 31
0.0
  0
LINE
  5
2D2
330
A
100
AcDbEntity
  8
WARNER
  6
SOLID
 62
     7
100
AcDbLine
 10
-785.8096278589999
 20
-220.539342378
 30
0.0
 11
-786.2534654369999
 21
-219.770592944
 31
0.0
  0
LINE
  5
2D3
330
A
100
AcDbEntity
  8
WARNER
  6
SOLID
 62
     7
100
AcDbLine
 10
-785.809628048
 20
-222.206559029
 30
0.0
 11
-785.8096278589999
 21
-220.539342345
 31
0.0
  0
LINE
  5
2D4
330
A
100
AcDbEntity
  8
WARNER
  6
SOLID
 62
     7
100
AcDbLine
 10
-785.8096289289999
 20
-230.001569504
 30
0.0
 11
-785.809628048
 21
-222.206558872
 31
0.0
  0
LINE
  5
2D5
330
A
100
AcDbEntity
  8
WARNER
  6
SOLID
 62
     7
100
AcDbLine
 10
-859.277691918
 20
-205.141870349
 30
0.0
 11
-859.2776913519999
 21
-200.141870349
 31
0.0
  0
LINE
  5
2D6
330
A
100
AcDbEntity
  8
WARNER
  6
SOLID
 62
     7
100
AcDbLine
 10
-857.2776920709999
 20
-206.141870555
 30
0.0
 11
-857.775795488
 21
-206.141870499
 31
0.0
  0
LINE
  5
2D7
330
A
100
AcDbEntity
  8
WARNER
  6
SOLID
 62
     7
100
AcDbLine
 10
-785.809624083
 20
-187.141875496
 30
0.0
 11
-785.809624083
 21
-46.64180066
 31
0.0
  0
LINE
  5
2D8
330
A
100
AcDbEntity
  8
WARNER
  6
SOLID
 62
     7
100
AcDbLine
 10
-859.877689165
 20
-180.901675118
 30
0.0
 11
-859.8776887499999
 21
-177.235077619
 31
0.0
  0
LINE
  5
2D9
330
A
100
AcDbEntity
  8
WARNER
  6
SOLID
 62
     7
100
AcDbLine
 10
-859.8776887499999
 20
-177.235077693
 30
0.0
 11
-859.8776887099999
 21
-176.883791129
 31
0.0
  0
LINE
  5
2DA
330
A
100
AcDbEntity
  8
WARNER
  6
SOLID
 62
     7
100
AcDbLine
 10
-859.4776889070001
 20
-178.547540377
 30
0.0
 11
-858.1476430489999
 21
-178.547540528
 31
0.0
  0
LINE
  5
2DB
330
A
100
AcDbEntity
  8
WARNER
  6
SOLID
 62
     7
100
AcDbLine
 10
-859.8776887919999
 20
-177.607540351
 30
0.0
 11
-859.477688792
 21
-177.607540396
 31
0.0
  0
LINE
  5
2DC
330
A
100
AcDbEntity
  8
WARNER
  6
SOLID
 62
     7
100
AcDbLine
 10
-859.477688992
 20
-179.305042672
 30
0.0
 11
-859.4776888
 21
-177.607540362
 31
0.0
  0
LINE
  5
2DD
330
A
100
AcDbEntity
  8
WARNER
  6
SOLID
 62
     7
100
AcDbLine
 10
-858.2776882060001
 20
-172.141871129
 30
0.0
 11
-857.77580606
 21
-172.1418711859999
 31
0.0
  0
LINE
  5
2DE
330
A
100
AcDbEntity
  8
WARNER
  6
SOLID
 62
     7
100
AcDbLine
 10
-857.277688227
 20
-172.141871242
 30
0.0
 11
-857.2776895389999
 21
-183.744572695
 31
0.0
  0
LWPOLYLINE
  5
2DF
330
A
100
AcDbEntity
  8
WARNER
  6
SOLID
 62
     7
100
AcDbPolyline
 90
        9
 70
     0
 43
0.0
 10
-861.9644599649999
 20
-180.901674629
 10
-862.1068937689999
 20
-181.355963559
 10
-862.2030588139999
 20
-181.774404734
 10
-862.2586790969998
 20
-182.1707263409999
 10
-862.2768867389998
 20
-182.556481792
 10
-862.2586791839999
 20
-182.942237246
 10
-862.203058991
 20
-183.338558865
 10
-862.1068940409999
 20
-183.757000063
 10
-861.964460339
 20
-184.211289025
  0
LINE
  5
2E0
330
A
100
AcDbEntity
  8
WARNER
  6
SOLID
 62
     7
100
AcDbLine
 10
-862.2776894720001
 20
-184.047539949
 30
0.0
 11
-862.2776889089999
 21
-179.068376033
 31
0.0
  0
LINE
  5
2E1
330
A
100
AcDbEntity
  8
WARNER
  6
SOLID
 62
     7
100
AcDbLine
 10
-864.27768882
 20
-178.641870319
 30
0.0
 11
-862.27768882
 21
-178.641870545
 31
0.0
  0
LWPOLYLINE
  5
2E2
330
A
100
AcDbEntity
  8
WARNER
  6
SOLID
 62
     7
100
AcDbPolyline
 90
        5
 70
     0
 43
0.0
 10
-862.2776722780001
 20
-179.068375844
 10
-862.2583717739999
 20
-179.507841044
 10
-862.2008302839999
 20
-179.951444788
 10
-862.10396744
 20
-180.411602691
 10
-861.9644599649999
 20
-180.901674629
  0
LINE
  5
2E3
330
A
100
AcDbEntity
  8
WARNER
  6
SOLID
 62
     7
100
AcDbLine
 10
-864.277689272
 20
-182.641870238
 30
0.0
 11
-862.2776892719999
 21
-182.641870465
 31
0.0
  0
LINE
  5
2E4
330
A
100
AcDbEntity
  8
WARNER
  6
SOLID
 62
     7
100
AcDbLine
 10
-859.8776895389999
 20
-184.211289447
 30
0.0
 11
-861.964477018
 21
-184.211289211
 31
0.0
  0
LWPOLYLINE
  5
2E5
330
A
100
AcDbEntity
  8
WARNER
  6
SOLID
 62
     7
100
AcDbPolyline
 90
        3
 70
     0
 43
0.0
 10
861.964460339
 20
-184.211289025
 10
862.1764537729999
 20
-184.132777412
 10
862.2692048580001
 20
-184.062206742
210
0.0
220
0.0
230
-1.0
  0
LINE
  5
2E6
330
A
100
AcDbEntity
  8
WARNER
  6
SOLID
 62
     7
100
AcDbLine
 10
-862.2776894720001
 20
-184.047539949
 30
0.0
 11
-862.2692214889999
 21
-184.062206931
 31
0.0
  0
LINE
  5
2E7
330
A
100
AcDbEntity
  8
WARNER
  6
SOLID
 62
     7
100
AcDbLine
 10
-859.8776894569999
 20
-183.487540232
 30
0.0
 11
-859.4776894569999
 21
-183.487540277
 31
0.0
  0
ARC
  5
2E8
330
A
100
AcDbEntity
  8
WARNER
  6
SOLID
 62
     7
100
AcDbCircle
 10
-877.5776722299999
 20
-178.641868517
 30
0.0
 40
3.649999999999999
100
AcDbArc
 50
2.257908398
 51
355.975772562
  0
LWPOLYLINE
  5
2E9
330
A
100
AcDbEntity
  8
WARNER
  6
SOLID
 62
     7
100
AcDbPolyline
 90
        7
 70
     0
 43
0.0
 10
-861.96445951
 20
-176.883790567
 10
-862.203058272
 20
-176.976423195
 10
-862.2586785139999
 20
-177.018489254
 10
-862.2768861169999
 20
-177.059433813
 10
-862.258678523
 20
-177.100378376
 10
-862.2030582909999
 20
-177.142444448
 10
-861.96445955
 20
-177.23507713
  0
LINE
  5
2EA
330
A
100
AcDbEntity
  8
WARNER
  6
SOLID
 62
     7
100
AcDbLine
 10
-862.27768868
 20
-177.0475400909999
 30
0.0
 11
-862.269220694
 21
-177.032873112
 31
0.0
  0
LINE
  5
2EB
330
A
100
AcDbEntity
  8
WARNER
  6
SOLID
 62
     7
100
AcDbLine
 10
-864.277688311
 20
-174.14187041
 30
0.0
 11
-864.2776906859999
 21
-195.14187041
 31
0.0
  0
LWPOLYLINE
  5
2EC
330
A
100
AcDbEntity
  8
WARNER
  6
SOLID
 62
     7
100
AcDbPolyline
 90
        5
 70
     0
 43
0.0
 10
-861.96445955
 20
-177.23507713
 10
-862.1039671369999
 20
-177.725149036
 10
-862.2008300839999
 20
-178.185306918
 10
-862.2583716739999
 20
-178.628910648
 10
-862.2776722780001
 20
-179.068375844
  0
LINE
  5
2ED
330
A
100
AcDbEntity
  8
WARNER
  6
SOLID
 62
     7
100
AcDbLine
 10
-862.2776889089999
 20
-179.068376134
 30
0.0
 11
-862.27768868
 21
-177.04754005
 31
0.0
  0
LINE
  5
2EE
330
A
100
AcDbEntity
  8
WARNER
  6
SOLID
 62
     7
100
AcDbLine
 10
-859.8776887099999
 20
-176.883791137
 30
0.0
 11
-861.9644761889999
 21
-176.883790901
 31
0.0
  0
LINE
  5
2EF
330
A
100
AcDbEntity
  8
WARNER
  6
SOLID
 62
     7
100
AcDbLine
 10
-861.9644761869999
 20
-177.235077457
 30
0.0
 11
-859.8776887080001
 21
-177.235077693
 31
0.0
  0
LINE
  5
2F0
330
A
100
AcDbEntity
  8
WARNER
  6
SOLID
 62
     7
100
AcDbLine
 10
-859.4776893589999
 20
-182.547540296
 30
0.0
 11
-857.5664492819999
 21
-182.547540513
 31
0.0
  0
LINE
  5
2F1
330
A
100
AcDbEntity
  8
WARNER
  6
SOLID
 62
     7
100
AcDbLine
 10
-859.4776894649999
 20
-183.487540277
 30
0.0
 11
-859.477688992
 21
-179.305042588
 31
0.0
  0
LINE
  5
2F2
330
A
100
AcDbEntity
  8
WARNER
  6
SOLID
 62
     7
100
AcDbLine
 10
-859.877689165
 20
-180.901675118
 30
0.0
 11
-861.9644766439998
 21
-180.901674882
 31
0.0
  0
LINE
  5
2F3
330
A
100
AcDbEntity
  8
WARNER
  6
SOLID
 62
     7
100
AcDbLine
 10
-859.8776895389999
 20
-184.211289447
 30
0.0
 11
-859.877689165
 21
-180.901675051
 31
0.0
  0
ARC
  5
2F4
330
A
100
AcDbEntity
  8
WARNER
  6
SOLID
 62
     7
100
AcDbCircle
 10
-867.2776747410001
 20
-200.841869681
 30
0.0
 40
3.649999999999999
100
AcDbArc
 50
90.56781392599999
 51
84.285678089
  0
LINE
  5
2F5
330
A
100
AcDbEntity
  8
WARNER
  6
SOLID
 62
     7
100
AcDbLine
 10
-859.2776913519999
 20
-200.14187045
 30
0.0
 11
-864.2776907869999
 21
-195.141869885
 31
0.0
  0
LINE
  5
2F6
330
A
100
AcDbEntity
  8
WARNER
  6
SOLID
 62
     7
100
AcDbLine
 10
-857.2776895389999
 20
-183.745015446
 30
0.0
 11
-857.2776920709999
 21
-206.141871008
 31
0.0
  0
LINE
  5
2F7
330
A
100
AcDbEntity
  8
WARNER
  6
SOLID
 62
     7
100
AcDbLine
 10
-785.80961919
 20
-143.871139308
 30
0.0
 11
-785.8096278589999
 21
-220.539343928
 31
0.0
  0
LINE
  5
2F8
330
A
100
AcDbEntity
  8
WARNER
  6
SOLID
 62
     7
100
AcDbLine
 10
-785.809629782
 20
-237.539342035
 30
0.0
 11
-785.809635676
 21
-289.664578389
 31
0.0
  0
LINE
  5
2F9
330
A
100
AcDbEntity
  8
WARNER
  6
SOLID
 62
     7
100
AcDbLine
 10
-830.977704136
 20
-308.133961036
 30
0.0
 11
-830.977705551
 21
-320.641871467
 31
0.0
  0
LINE
  5
2FA
330
A
100
AcDbEntity
  8
WARNER
  6
SOLID
 62
     7
100
AcDbLine
 10
-830.977705551
 20
-320.641871214
 30
0.0
 11
-831.9777056639999
 21
-321.641871101
 31
0.0
  0
LINE
  5
2FB
330
A
100
AcDbEntity
  8
WARNER
  6
SOLID
 62
     7
100
AcDbLine
 10
-857.277705076
 20
-321.14186823
 30
0.0
 11
-858.2777051889999
 21
-322.141868117
 31
0.0
  0
LINE
  5
2FC
330
A
100
AcDbEntity
  8
WARNER
  6
SOLID
 62
     7
100
AcDbLine
 10
-857.2777049849999
 20
-320.341868246
 30
0.0
 11
-855.9777051380001
 21
-321.641868387
 31
0.0
  0
LINE
  5
2FD
330
A
100
AcDbEntity
  8
WARNER
  6
SOLID
 62
     7
100
AcDbLine
 10
-857.2777036560001
 20
-308.587111947
 30
0.0
 11
-857.277705076
 21
-321.141868484
 31
0.0
  0
LINE
  5
2FE
330
A
100
AcDbEntity
  8
WARNER
  6
SOLID
 62
     7
100
AcDbLine
 10
-785.809624083
 20
-321.641876302
 30
0.0
 11
-855.9777056439999
 21
-321.641868367
 31
0.0
  0
LINE
  5
2FF
330
A
100
AcDbEntity
  8
WARNER
  6
SOLID
 62
     7
100
AcDbLine
 10
-909.2777039110002
 20
-320.14186237
 30
0.0
 11
-909.2777027270001
 21
-309.664566282
 31
0.0
  0
LINE
  5
300
330
A
100
AcDbEntity
  8
WARNER
  6
SOLID
 62
     7
100
AcDbLine
 10
-911.777703139
 20
-313.754208263
 30
0.0
 11
-911.777702676
 21
-309.6645661290001
 31
0.0
  0
LINE
  5
301
330
A
100
AcDbEntity
  8
WARNER
  6
SOLID
 62
     7
100
AcDbLine
 10
-909.2777031889999
 20
-313.754208545
 30
0.0
 11
-911.7777031889998
 21
-313.754208263
 31
0.0
  0
LINE
  5
302
330
A
100
AcDbEntity
  8
WARNER
  6
SOLID
 62
     7
100
AcDbLine
 10
-909.2777039110002
 20
-320.14186237
 30
0.0
 11
-907.277704138
 21
-322.141862596
 31
0.0
  0
LINE
  5
303
330
A
100
AcDbEntity
  8
WARNER
  6
SOLID
 62
     7
100
AcDbLine
 10
-920.7777020980001
 20
-306.164565264
 30
0.0
 11
-911.777702098
 21
-306.164566282
 31
0.0
  0
LINE
  5
304
330
A
100
AcDbEntity
  8
WARNER
  6
SOLID
 62
     7
100
AcDbLine
 10
-920.7777025610001
 20
-310.2542073159999
 30
0.0
 11
-911.7777025610001
 21
-310.254208334
 31
0.0
  0
LINE
  5
305
330
A
100
AcDbEntity
  8
WARNER
  6
SOLID
 62
     7
100
AcDbLine
 10
-909.2777022599999
 20
-305.534301466
 30
0.0
 11
-909.2777027270001
 21
-309.664566577
 31
0.0
  0
LINE
  5
306
330
A
100
AcDbEntity
  8
WARNER
  6
SOLID
 62
     7
100
AcDbLine
 10
-911.7777000749999
 20
-286.664566676
 30
0.0
 11
-909.277700075
 21
-286.664566959
 31
0.0
  0
LINE
  5
307
330
A
100
AcDbEntity
  8
WARNER
  6
SOLID
 62
     7
100
AcDbLine
 10
-910.8776989119999
 20
-276.212687991
 30
0.0
 11
-909.277698912
 21
-276.212688172
 31
0.0
  0
LINE
  5
308
330
A
100
AcDbEntity
  8
WARNER
  6
SOLID
 62
     7
100
AcDbLine
 10
-910.8776989119999
 20
-276.212687991
 30
0.0
 11
-910.8776988269999
 21
-275.463150287
 31
0.0
  0
LINE
  5
309
330
A
100
AcDbEntity
  8
WARNER
  6
SOLID
 62
     7
100
AcDbLine
 10
-910.8776972719999
 20
-261.712688284
 30
0.0
 11
-918.077697272
 21
-261.71268747
 31
0.0
  0
LINE
  5
30A
330
A
100
AcDbEntity
  8
WARNER
  6
SOLID
 62
     7
100
AcDbLine
 10
-918.877697201
 20
-262.512687363
 30
0.0
 11
-918.87769849
 21
-273.912687363
 31
0.0
  0
ARC
  5
30B
330
A
100
AcDbEntity
  8
WARNER
  6
SOLID
 62
     7
100
AcDbCircle
 10
-918.0776817139999
 20
-262.512688851
 30
0.0
 40
0.8
100
AcDbArc
 50
89.99999352100001
 51
179.999993521
  0
LINE
  5
30C
330
A
100
AcDbEntity
  8
WARNER
  6
SOLID
 62
     7
100
AcDbLine
 10
-910.8776971019999
 20
-260.212688315
 30
0.0
 11
-909.2776971019999
 21
-260.212688495
 31
0.0
  0
LINE
  5
30D
330
A
100
AcDbEntity
  8
WARNER
  6
SOLID
 62
     7
100
AcDbLine
 10
-910.8776988269999
 20
-275.463150303
 30
0.0
 11
-910.8776971019999
 21
-260.212688006
 31
0.0
  0
LINE
  5
30E
330
A
100
AcDbEntity
  8
WARNER
  6
SOLID
 62
     7
100
AcDbLine
 10
-910.877698742
 20
-274.712688021
 30
0.0
 11
-918.0776987419999
 21
-274.712687207
 31
0.0
  0
LINE
  5
30F
330
A
100
AcDbEntity
  8
WARNER
  6
SOLID
 62
     7
100
AcDbLine
 10
-920.7777002889999
 20
-290.164565588
 30
0.0
 11
-911.7777002889999
 21
-290.164566605
 31
0.0
  0
ARC
  5
310
330
A
100
AcDbEntity
  8
WARNER
  6
SOLID
 62
     7
100
AcDbCircle
 10
-920.777684954
 20
-291.164567544
 30
0.0
 40
1.0
100
AcDbArc
 50
89.99999352100001
 51
179.999993521
  0
ARC
  5
311
330
A
100
AcDbEntity
  8
WARNER
  6
SOLID
 62
     7
100
AcDbCircle
 10
-918.077683003
 20
-273.912688851
 30
0.0
 40
0.8
100
AcDbArc
 50
179.999993521
 51
269.999993521
  0
LINE
  5
312
330
A
100
AcDbEntity
  8
WARNER
  6
SOLID
 62
     7
100
AcDbLine
 10
-911.777702676
 20
-309.664566211
 30
0.0
 11
-911.7777000749999
 21
-286.664566211
 31
0.0
  0
LINE
  5
313
330
A
100
AcDbEntity
  8
WARNER
  6
SOLID
 62
     7
100
AcDbLine
 10
-921.777701965
 20
-305.164565171
 30
0.0
 11
-921.777700382
 21
-291.164565171
 31
0.0
  0
LINE
  5
314
330
A
100
AcDbEntity
  8
WARNER
  6
SOLID
 62
     7
100
AcDbLine
 10
-909.277693493
 20
-228.008045528
 30
0.0
 11
-909.2776945310001
 21
-237.191617036
 31
0.0
  0
LINE
  5
315
330
A
100
AcDbEntity
  8
WARNER
  6
SOLID
 62
     7
100
AcDbLine
 10
-889.777688418
 20
-179.641867415
 30
0.0
 11
-897.7776894349998
 21
-188.641866511
 31
0.0
  0
LINE
  5
316
330
A
100
AcDbEntity
  8
WARNER
  6
SOLID
 62
     7
100
AcDbLine
 10
-889.7776886439999
 20
-181.641867375
 30
0.0
 11
-895.999911658
 21
-188.641866671
 31
0.0
  0
LINE
  5
317
330
A
100
AcDbEntity
  8
WARNER
  6
SOLID
 62
     7
100
AcDbLine
 10
-889.777689435
 20
-188.641867233
 30
0.0
 11
-895.999911658
 21
-188.64186653
 31
0.0
  0
LINE
  5
318
330
A
100
AcDbEntity
  8
WARNER
  6
SOLID
 62
     7
100
AcDbLine
 10
-897.7776890480001
 20
-186.641866369
 30
0.0
 11
-897.777689726
 21
-192.641866369
 31
0.0
  0
LINE
  5
319
330
A
100
AcDbEntity
  8
WARNER
  6
SOLID
 62
     7
100
AcDbLine
 10
-897.777689387
 20
-189.641866309
 30
0.0
 11
-895.999911496
 21
-188.64186651
 31
0.0
  0
LINE
  5
31A
330
A
100
AcDbEntity
  8
WARNER
  6
SOLID
 62
     7
100
AcDbLine
 10
-895.999911758
 20
-190.641866489
 30
0.0
 11
-897.777689423
 21
-189.641866288
 31
0.0
  0
LINE
  5
31B
330
A
100
AcDbEntity
  8
WARNER
  6
SOLID
 62
     7
100
AcDbLine
 10
-889.777691301
 20
-205.1418669
 30
0.0
 11
-889.777687796
 21
-174.1418669
 31
0.0
  0
LINE
  5
31C
330
A
100
AcDbEntity
  8
WARNER
  6
SOLID
 62
     7
100
AcDbLine
 10
-889.7776896619999
 20
-190.641867193
 30
0.0
 11
-895.999911884
 21
-190.641866489
 31
0.0
  0
LINE
  5
31D
330
A
100
AcDbEntity
  8
WARNER
  6
SOLID
 62
     7
100
AcDbLine
 10
-889.7776906789999
 20
-199.641867011
 30
0.0
 11
-897.777689662
 21
-190.641866106
 31
0.0
  0
LINE
  5
31E
330
A
100
AcDbEntity
  8
WARNER
  6
SOLID
 62
     7
100
AcDbLine
 10
-889.7776904529999
 20
-197.641867052
 30
0.0
 11
-895.999911884
 21
-190.641866348
 31
0.0
  0
LINE
  5
31F
330
A
100
AcDbEntity
  8
WARNER
  6
SOLID
 62
     7
100
AcDbLine
 10
-907.277691061
 20
-206.141864901
 30
0.0
 11
-908.2853068689999
 21
-206.141864787
 31
0.0
  0
LWPOLYLINE
  5
320
330
A
100
AcDbEntity
  8
WARNER
  6
SOLID
 62
     7
100
AcDbPolyline
 90
       41
 70
     0
 43
0.0
 10
923.2592075580001
 20
-192.641863351
 10
923.375642347
 20
-192.639520541
 10
923.4923209460001
 20
-192.632445718
 10
923.608981403
 20
-192.620569252
 10
923.7253617630001
 20
-192.603821515
 10
923.841200074
 20
-192.582132876
 10
923.9562343819999
 20
-192.555433707
 10
924.070202735
 20
-192.523654379
 10
924.1828431789999
 20
-192.486725262
 10
924.2938937599999
 20
-192.444576727
 10
924.403092526
 20
-192.397139144
 10
924.495779085
 20
-192.351861512
 10
924.5870066489999
 20
-192.302503612
 10
924.6765255289998
 20
-192.24909876
 10
924.7640860329999
 20
-192.191680271
 10
924.8494384710001
 20
-192.130281462
 10
924.929285806
 20
-192.067387266
 10
925.007003776
 20
-192.000540647
 10
925.0823571819999
 20
-191.929888131
 10
925.1551108280001
 20
-191.855576243
 10
925.2250295169998
 20
-191.777751508
 10
925.2918780519999
 20
-191.696560451
 10
925.355421236
 20
-191.612149598
 10
925.415423871
 20
-191.524665474
 10
925.471650761
 20
-191.434254604
 10
925.5229747389998
 20
-191.342815675
 10
925.5706823810001
 20
-191.248354928
 10
925.614634913
 20
-191.151144216
 10
925.6546935600001
 20
-191.051455394
 10
925.690719548
 20
-190.949560315
 10
925.722574103
 20
-190.845730832
 10
925.7501184489999
 20
-190.740238801
 10
925.7732138119999
 20
-190.633356074
 10
925.7900124509999
 20
-190.536888576
 10
925.8033050899999
 20
-190.439167584
 10
925.8130948319999
 20
-190.340433241
 10
925.819384783
 20
-190.240925692
 10
925.822178045
 20
-190.14088508
 10
925.8214777219999
 20
-190.040551548
 10
925.817286918
 20
-189.940165241
 10
925.8096087369999
 20
-189.839966302
210
0.0
220
0.0
230
-1.0
  0
LINE
  5
321
330
A
100
AcDbEntity
  8
WARNER
  6
SOLID
 62
     7
100
AcDbLine
 10
-909.2776910199999
 20
-206.141864675
 30
0.0
 11
-909.277689494
 21
-192.641864675
 31
0.0
  0
LINE
  5
322
330
A
100
AcDbEntity
  8
WARNER
  6
SOLID
 62
     7
100
AcDbLine
 10
-897.777689726
 20
-192.641866248
 30
0.0
 11
-923.2592234710001
 21
-192.641863366
 31
0.0
  0
LINE
  5
323
330
A
100
AcDbEntity
  8
WARNER
  6
SOLID
 62
     7
100
AcDbLine
 10
-909.277693493
 20
-228.008045528
 30
0.0
 11
-909.2776910199999
 21
-206.141864233
 31
0.0
  0
LINE
  5
324
330
A
100
AcDbEntity
  8
WARNER
  6
SOLID
 62
     7
100
AcDbLine
 10
-911.7776930089998
 20
-224.179221575
 30
0.0
 11
-911.777692259
 21
-217.539331585
 31
0.0
  0
LINE
  5
325
330
A
100
AcDbEntity
  8
WARNER
  6
SOLID
 62
     7
100
AcDbLine
 10
-909.2776923089999
 20
-217.539332002
 30
0.0
 11
-911.777692309
 21
-217.539331719
 31
0.0
  0
LINE
  5
326
330
A
100
AcDbEntity
  8
WARNER
  6
SOLID
 62
     7
100
AcDbLine
 10
-920.7776953979999
 20
-246.912599613
 30
0.0
 11
-911.7776953979999
 21
-246.912600631
 31
0.0
  0
LINE
  5
327
330
A
100
AcDbEntity
  8
WARNER
  6
SOLID
 62
     7
100
AcDbLine
 10
-909.277696026
 20
-250.412600843
 30
0.0
 11
-911.777696026
 21
-250.41260056
 31
0.0
  0
LINE
  5
328
330
A
100
AcDbEntity
  8
WARNER
  6
SOLID
 62
     7
100
AcDbLine
 10
-911.777695976
 20
-250.41260056
 30
0.0
 11
-911.7776948589998
 21
-240.539331054
 31
0.0
  0
ARC
  5
329
330
A
100
AcDbEntity
  8
WARNER
  6
SOLID
 62
     7
100
AcDbCircle
 10
-920.777679837
 20
-245.912600695
 30
0.0
 40
1.0
100
AcDbArc
 50
179.999993521
 51
269.999993521
  0
ARC
  5
32A
330
A
100
AcDbEntity
  8
WARNER
  6
SOLID
 62
     7
100
AcDbCircle
 10
-920.7776787210001
 20
-236.039331189
 30
0.0
 40
1.0
100
AcDbArc
 50
179.999993521
 51
269.999993521
  0
LINE
  5
32B
330
A
100
AcDbEntity
  8
WARNER
  6
SOLID
 62
     7
100
AcDbLine
 10
-920.777694282
 20
-237.039330307
 30
0.0
 11
-911.7776942819999
 21
-237.039331325
 31
0.0
  0
LINE
  5
32C
330
A
100
AcDbEntity
  8
WARNER
  6
SOLID
 62
     7
100
AcDbLine
 10
-921.777695265
 20
-245.91259952
 30
0.0
 11
-921.777694148
 21
-236.039330015
 31
0.0
  0
ARC
  5
32D
330
A
100
AcDbEntity
  8
WARNER
  6
SOLID
 62
     7
100
AcDbCircle
 10
-920.777677138
 20
-222.039331189
 30
0.0
 40
1.0
100
AcDbArc
 50
89.99999352100001
 51
179.999993521
  0
LINE
  5
32E
330
A
100
AcDbEntity
  8
WARNER
  6
SOLID
 62
     7
100
AcDbLine
 10
-921.777694148
 20
-236.039330214
 30
0.0
 11
-921.7776925649999
 21
-222.039330214
 31
0.0
  0
LINE
  5
32F
330
A
100
AcDbEntity
  8
WARNER
  6
SOLID
 62
     7
100
AcDbLine
 10
-911.7776948589998
 20
-240.539331254
 30
0.0
 11
-911.7776930089998
 21
-224.179221244
 31
0.0
  0
LINE
  5
330
330
A
100
AcDbEntity
  8
WARNER
  6
SOLID
 62
     7
100
AcDbLine
 10
-920.777692472
 20
-221.03933063
 30
0.0
 11
-911.7776924720001
 21
-221.039331648
 31
0.0
  0
LINE
  5
331
330
A
100
AcDbEntity
  8
WARNER
  6
SOLID
 62
     7
100
AcDbLine
 10
-909.2777022599999
 20
-305.534301466
 30
0.0
 11
-909.2776945310001
 21
-237.191615469
 31
0.0
  0
LINE
  5
332
330
A
100
AcDbEntity
  8
WARNER
  6
SOLID
 62
     7
100
AcDbLine
 10
-907.277691061
 20
-206.141864901
 30
0.0
 11
-907.277704178
 21
-322.141864901
 31
0.0
  0
LINE
  5
333
330
A
100
AcDbEntity
  8
WARNER
  6
SOLID
 62
     7
100
AcDbLine
 10
-858.2777051689999
 20
-322.141868097
 30
0.0
 11
-907.2777051689998
 21
-322.141862556
 31
0.0
  0
LINE
  5
334
330
A
100
AcDbEntity
  8
WARNER
  6
SOLID
 62
     7
100
AcDbLine
 10
-857.2776920709999
 20
-206.141870555
 30
0.0
 11
-857.2777036560001
 21
-308.587114018
 31
0.0
  0
LINE
  5
335
330
A
100
AcDbEntity
  8
WARNER
  6
SOLID
 62
     7
100
AcDbLine
 10
-889.777687796
 20
-174.141867527
 30
0.0
 11
-864.2776877960001
 21
-174.14187041
 31
0.0
  0
LINE
  5
336
330
A
100
AcDbEntity
  8
WARNER
  6
SOLID
 62
     7
100
AcDbLine
 10
-859.277691918
 20
-205.141870349
 30
0.0
 11
-889.7776919180001
 21
-205.1418669
 31
0.0
  0
LINE
  5
337
330
A
100
AcDbEntity
  8
WARNER
  6
SOLID
 62
     7
100
AcDbLine
 10
-858.2776920509999
 20
-206.141870442
 30
0.0
 11
-907.2776920509999
 21
-206.141864901
 31
0.0
  0
LINE
  5
338
330
A
100
AcDbEntity
  8
WARNER
  6
SOLID
 62
     7
100
AcDbLine
 10
-856.9776849789999
 20
-143.371134794
 30
0.0
 11
-857.2776849789999
 21
-143.371134761
 31
0.0
  0
LWPOLYLINE
  5
339
330
A
100
AcDbEntity
  8
WARNER
  6
SOLID
 62
     7
100
AcDbPolyline
 90
       33
 70
     0
 43
0.0
 10
887.465770424
 20
-152.20129631
 10
887.446564204
 20
-151.815220788
 10
887.3876104310001
 20
-151.424018318
 10
887.2874775260001
 20
-151.035145333
 10
887.146950632
 20
-150.655607991
 10
886.9676948229999
 20
-150.291811803
 10
886.7532568779999
 20
-149.949387479
 10
886.508235652
 20
-149.633771834
 10
886.239103665
 20
-149.349178072
 10
885.942815841
 20
-149.090814904
 10
885.614435921
 20
-148.855717805
 10
885.2584070639998
 20
-148.6500601679999
 10
884.880432587
 20
-148.47821192
 10
884.4864080689999
 20
-148.343534936
 10
884.083009857
 20
-148.247594141
 10
883.6775232939999
 20
-148.19111693
 10
883.277668785
 20
-148.17271957
 10
882.877814279
 20
-148.19111702
 10
882.47232773
 20
-148.247594324
 10
882.0689295389998
 20
-148.343535209
 10
881.674905052
 20
-148.478212282
 10
881.296930613
 20
-148.650060616
 10
880.940901802
 20
-148.855718334
 10
880.612521936
 20
-149.090815507
 10
880.31623417
 20
-149.349178742
 10
880.047102248
 20
-149.633772565
 10
879.8020810930001
 20
-149.949388265
 10
879.5876432249999
 20
-150.291812637
 10
879.4083874989999
 20
-150.655608866
 10
879.267860691
 20
-151.03514624
 10
879.167727873
 20
-151.4240192479999
 10
879.1087741889999
 20
-151.81522173
 10
879.089568056
 20
-152.201297257
210
0.0
220
0.0
230
-1.0
  0
LWPOLYLINE
  5
33A
330
A
100
AcDbEntity
  8
WARNER
  6
SOLID
 62
     7
100
AcDbPolyline
 90
       33
 70
     0
 43
0.0
 10
879.089568056
 20
-152.201297257
 10
879.108774276
 20
-152.587681305
 10
879.1677280489999
 20
-152.979818691
 10
879.267860955
 20
-153.370251171
 10
879.4083878489999
 20
-153.751910695
 10
879.587643658
 20
-154.118305059
 10
879.802081603
 20
-154.463675585
 10
880.04710283
 20
-154.782441122
 10
880.3162348169999
 20
-155.070231353
 10
880.6125226419998
 20
-155.33179114
 10
880.940902562
 20
-155.570038558
 10
881.2969314189999
 20
-155.778643059
 10
881.674905897
 20
-155.953090269
 10
882.0689304149999
 20
-156.089890222
 10
882.4723286280001
 20
-156.187391171
 10
882.8778151899999
 20
-156.244803729
 10
883.2776696999999
 20
-156.263509763
 10
883.677524205
 20
-156.244803638
 10
884.0830107539998
 20
-156.187390989
 10
884.486408945
 20
-156.0898899479999
 10
884.880433432
 20
-155.953089906
 10
885.2584078700001
 20
-155.778642611
 10
885.6144366809999
 20
-155.57003803
 10
885.9428165469999
 20
-155.331790537
 10
886.239104312
 20
-155.070230683
 10
886.5082362339999
 20
-154.782440391
 10
886.7532573889999
 20
-154.463674799
 10
886.967695256
 20
-154.118304224
 10
887.146950982
 20
-153.75190982
 10
887.2874777899999
 20
-153.370250264
 10
887.3876106069999
 20
-152.979817762
 10
887.4465642919998
 20
-152.587680362
 10
887.465770424
 20
-152.20129631
210
0.0
220
0.0
230
-1.0
  0
LINE
  5
33B
330
A
100
AcDbEntity
  8
WARNER
  6
SOLID
 62
     7
100
AcDbLine
 10
-909.2776817169999
 20
-123.871129275
 30
0.0
 11
-911.777681717
 21
-123.871128992
 31
0.0
  0
LINE
  5
33C
330
A
100
AcDbEntity
  8
WARNER
  6
SOLID
 62
     7
100
AcDbLine
 10
-917.6776797910001
 20
-108.340448697
 30
0.0
 11
-909.2776797910001
 21
-108.340449647
 31
0.0
  0
LINE
  5
33D
330
A
100
AcDbEntity
  8
WARNER
  6
SOLID
 62
     7
100
AcDbLine
 10
-757.8095984039999
 20
-44.64180065999999
 30
0.0
 11
-783.809624083
 21
-44.64180065999999
 31
0.0
  0
LINE
  5
33E
330
A
100
AcDbEntity
  8
WARNER
  6
SOLID
 62
     7
100
AcDbLine
 10
-783.809624083
 20
-44.64180065999999
 30
0.0
 11
-785.809624083
 21
-46.64180066
 31
0.0
  0
LINE
  5
33F
330
A
100
AcDbEntity
  8
WARNER
  6
SOLID
 62
     7
100
AcDbLine
 10
-783.809624083
 20
-44.64180065999999
 30
0.0
 11
-785.809624083
 21
-46.64180066
 31
0.0
  0
LINE
  5
340
330
A
100
AcDbEntity
  8
WARNER
  6
SOLID
 62
     7
100
AcDbLine
 10
-783.809624083
 20
-329.641950332
 30
0.0
 11
-785.809624083
 21
-327.641950332
 31
0.0
  0
LINE
  5
341
330
A
100
AcDbEntity
  8
WARNER
  6
SOLID
 62
     7
100
AcDbLine
 10
-783.809624083
 20
-329.641950332
 30
0.0
 11
-785.809624083
 21
-327.641950332
 31
0.0
  0
LINE
  5
342
330
A
100
AcDbEntity
  8
WARNER
  6
SOLID
 62
     7
100
AcDbLine
 10
-755.809598404
 20
-329.641950332
 30
0.0
 11
-783.809624083
 21
-329.641950332
 31
0.0
  0
LINE
  5
343
330
A
100
AcDbEntity
  8
WARNER
  6
SOLID
 62
     7
100
AcDbLine
 10
-785.809624083
 20
-187.141875496
 30
0.0
 11
-785.809624083
 21
-327.641950332
 31
0.0
  0
LINE
  5
344
330
A
100
AcDbEntity
  8
WARNER
  6
SOLID
 62
     7
100
AcDbLine
 10
-923.5776771639999
 20
-86.164385156
 30
0.0
 11
-917.677677164
 21
-86.16438582299998
 31
0.0
  0
LINE
  5
345
330
A
100
AcDbEntity
  8
WARNER
  6
SOLID
 62
     7
100
AcDbLine
 10
-909.2776764589999
 20
-77.372647699
 30
0.0
 11
-917.677676459
 21
-77.372646749
 31
0.0
  0
LINE
  5
346
330
A
100
AcDbEntity
  8
WARNER
  6
SOLID
 62
     7
100
AcDbLine
 10
-921.777676856
 20
-83.11916183600001
 30
0.0
 11
-921.7776763939999
 21
-79.029519702
 31
0.0
  0
LINE
  5
347
330
A
100
AcDbEntity
  8
WARNER
  6
SOLID
 62
     7
100
AcDbLine
 10
-920.7776769889999
 20
-84.11916192899999
 30
0.0
 11
-917.6776769889999
 21
-84.11916228
 31
0.0
  0
ARC
  5
348
330
A
100
AcDbEntity
  8
WARNER
  6
SOLID
 62
     7
100
AcDbCircle
 10
-920.777661428
 20
-83.11915971999999
 30
0.0
 40
1.0
100
AcDbArc
 50
179.999993521
 51
269.999993521
  0
LINE
  5
349
330
A
100
AcDbEntity
  8
WARNER
  6
SOLID
 62
     7
100
AcDbLine
 10
-917.6776762889998
 20
-77.372646749
 30
0.0
 11
-917.6776797910001
 21
-108.340449323
 31
0.0
  0
LINE
  5
34A
330
A
100
AcDbEntity
  8
WARNER
  6
SOLID
 62
     7
100
AcDbLine
 10
-911.777675255
 20
-67.16941114499999
 30
0.0
 11
-911.777674504
 21
-60.529521155
 31
0.0
  0
LINE
  5
34B
330
A
100
AcDbEntity
  8
WARNER
  6
SOLID
 62
     7
100
AcDbLine
 10
-909.277674554
 20
-60.529521572
 30
0.0
 11
-909.2776749369999
 21
-63.918402952
 31
0.0
  0
LINE
  5
34C
330
A
100
AcDbEntity
  8
WARNER
  6
SOLID
 62
     7
100
AcDbLine
 10
-909.277674554
 20
-60.529521572
 30
0.0
 11
-911.777674554
 21
-60.52952128899999
 31
0.0
  0
LINE
  5
34D
330
A
100
AcDbEntity
  8
WARNER
  6
SOLID
 62
     7
100
AcDbLine
 10
-909.277674554
 20
-60.529521572
 30
0.0
 11
-909.2776738319999
 21
-54.14186761799999
 31
0.0
  0
LINE
  5
34E
330
A
100
AcDbEntity
  8
WARNER
  6
SOLID
 62
     7
100
AcDbLine
 10
-921.777676319
 20
-78.373674307
 30
0.0
 11
-921.77767481
 21
-65.02951979799999
 31
0.0
  0
ARC
  5
34F
330
A
100
AcDbEntity
  8
WARNER
  6
SOLID
 62
     7
100
AcDbCircle
 10
-920.7776593830001
 20
-65.029517585
 30
0.0
 40
1.0
100
AcDbArc
 50
89.99999352100001
 51
179.999993521
  0
LINE
  5
350
330
A
100
AcDbEntity
  8
WARNER
  6
SOLID
 62
     7
100
AcDbLine
 10
-920.777674718
 20
-64.02952020099999
 30
0.0
 11
-911.777674718
 21
-64.029521219
 31
0.0
  0
LINE
  5
351
330
A
100
AcDbEntity
  8
WARNER
  6
SOLID
 62
     7
100
AcDbLine
 10
-911.777676408
 20
-77.372647416
 30
0.0
 11
-911.777675255
 21
-67.169410939
 31
0.0
  0
LINE
  5
352
330
A
100
AcDbEntity
  8
WARNER
  6
SOLID
 62
     7
100
AcDbLine
 10
-921.7776763939999
 20
-79.029519784
 30
0.0
 11
-921.777676319
 21
-78.373674294
 31
0.0
  0
LINE
  5
353
330
A
100
AcDbEntity
  8
WARNER
  6
SOLID
 62
     7
100
AcDbLine
 10
-858.2776746369999
 20
-52.141873555
 30
0.0
 11
-907.2776746369999
 21
-52.141868014
 31
0.0
  0
LINE
  5
354
330
A
100
AcDbEntity
  8
WARNER
  6
SOLID
 62
     7
100
AcDbLine
 10
-909.277682019
 20
-126.542935313
 30
0.0
 11
-909.2776749369999
 21
-63.91840161800001
 31
0.0
  0
LINE
  5
355
330
A
100
AcDbEntity
  8
WARNER
  6
SOLID
 62
     7
100
AcDbLine
 10
-909.277687175
 20
-172.141865362
 30
0.0
 11
-908.285244566
 21
-172.141865474
 31
0.0
  0
LINE
  5
356
330
A
100
AcDbEntity
  8
WARNER
  6
SOLID
 62
     7
100
AcDbLine
 10
-909.2776843180001
 20
-146.87112881
 30
0.0
 11
-911.7776843180001
 21
-146.871128527
 31
0.0
  0
LWPOLYLINE
  5
357
330
A
100
AcDbEntity
  8
WARNER
  6
SOLID
 62
     7
100
AcDbPolyline
 90
        3
 70
     0
 43
0.0
 10
-922.055373226
 20
-186.641863487
 10
-922.413957072
 20
-186.663029792
 10
-922.777673286
 20
-186.72623011
  0
LWPOLYLINE
  5
358
330
A
100
AcDbEntity
  8
WARNER
  6
SOLID
 62
     7
100
AcDbPolyline
 90
       33
 70
     0
 43
0.0
 10
-918.7375277319999
 20
-178.739134864
 10
-918.7279740300001
 20
-178.483642558
 10
-918.747276678
 20
-178.2279016229999
 10
-918.795249783
 20
-177.974374984
 10
-918.8714313350001
 20
-177.725504243
 10
-918.9750876659999
 20
-177.48368616
 10
-919.105220509
 20
-177.251249576
 10
-919.2605766119999
 20
-177.030432983
 10
-919.4396598110001
 20
-176.823362965
 10
-919.640745438
 20
-176.63203372
 10
-919.8618969269999
 20
-176.458287854
 10
-920.1009844679999
 20
-176.303798633
 10
-920.3557055180001
 20
-176.170053874
 10
-920.6236069739999
 20
-176.058341613
 10
-920.9021087969999
 20
-175.969737698
 10
-921.188528863
 20
-175.905095435
 10
-921.4801087899999
 20
-175.865037364
 10
-921.7740405039998
 20
-175.849949267
 10
-922.0674932799999
 20
-175.859976448
 10
-922.357641009
 20
-175.895022343
 10
-922.6416894089998
 20
-175.954749438
 10
-922.9169029369998
 20
-176.038582531
 10
-923.1806311380001
 20
-176.145714261
 10
-923.430334164
 20
-176.275112892
 10
-923.6636072389998
 20
-176.425532245
 10
-923.878203815
 20
-176.595523698
 10
-924.0720572089999
 20
-176.783450141
 10
-924.2433005069999
 20
-176.987501739
 10
-924.390284543
 20
-177.205713364
 10
-924.5115937799999
 20
-177.435983518
 10
-924.606059943
 20
-177.676094573
 10
-924.672773272
 20
-177.92373413
 10
-924.71109128
 20
-178.176517282
  0
LINE
  5
359
330
A
100
AcDbEntity
  8
WARNER
  6
SOLID
 62
     7
100
AcDbLine
 10
-918.737543215
 20
-178.739135092
 30
0.0
 11
-915.406422002
 21
-143.371128187
 31
0.0
  0
LINE
  5
35A
330
A
100
AcDbEntity
  8
WARNER
  6
SOLID
 62
     7
100
AcDbLine
 10
-921.777684083
 20
-147.031055474
 30
0.0
 11
-921.777683556
 21
-142.371127393
 31
0.0
  0
LINE
  5
35B
330
A
100
AcDbEntity
  8
WARNER
  6
SOLID
 62
     7
100
AcDbLine
 10
-920.77768369
 20
-143.37112758
 30
0.0
 11
-911.77768369
 21
-143.371128598
 31
0.0
  0
ARC
  5
35C
330
A
100
AcDbEntity
  8
WARNER
  6
SOLID
 62
     7
100
AcDbCircle
 10
-920.7776681289999
 20
-142.371126568
 30
0.0
 40
1.0
100
AcDbArc
 50
179.999993521
 51
269.999993521
  0
LINE
  5
35D
330
A
100
AcDbEntity
  8
WARNER
  6
SOLID
 62
     7
100
AcDbLine
 10
-909.2776824680001
 20
-130.51101913
 30
0.0
 11
-909.277683021
 21
-135.400238341
 31
0.0
  0
LINE
  5
35E
330
A
100
AcDbEntity
  8
WARNER
  6
SOLID
 62
     7
100
AcDbLine
 10
-920.7776818800001
 20
-127.371127903
 30
0.0
 11
-911.7776818800001
 21
-127.371128921
 31
0.0
  0
LINE
  5
35F
330
A
100
AcDbEntity
  8
WARNER
  6
SOLID
 62
     7
100
AcDbLine
 10
-917.677680785
 20
-117.132187771
 30
0.0
 11
-923.5776807849999
 21
-117.132187104
 31
0.0
  0
LINE
  5
360
330
A
100
AcDbEntity
  8
WARNER
  6
SOLID
 62
     7
100
AcDbLine
 10
-923.577680666
 20
-117.132187104
 30
0.0
 11
-923.5776819500001
 21
-128.488183637
 31
0.0
  0
LINE
  5
361
330
A
100
AcDbEntity
  8
WARNER
  6
SOLID
 62
     7
100
AcDbLine
 10
-923.5776819500001
 20
-128.488183408
 30
0.0
 11
-921.77768195
 21
-128.488183611
 31
0.0
  0
ARC
  5
362
330
A
100
AcDbEntity
  8
WARNER
  6
SOLID
 62
     7
100
AcDbCircle
 10
-920.7776665449999
 20
-128.371126568
 30
0.0
 40
1.0
100
AcDbArc
 50
89.99999352100001
 51
179.999993521
  0
LINE
  5
363
330
A
100
AcDbEntity
  8
WARNER
  6
SOLID
 62
     7
100
AcDbLine
 10
-921.777683556
 20
-142.371127487
 30
0.0
 11
-921.7776819730001
 21
-128.371127487
 31
0.0
  0
LINE
  5
364
330
A
100
AcDbEntity
  8
WARNER
  6
SOLID
 62
     7
100
AcDbLine
 10
-924.7111066369999
 20
-178.176517473
 30
0.0
 11
-921.411630749
 21
-143.144503163
 31
0.0
  0
LINE
  5
365
330
A
100
AcDbEntity
  8
WARNER
  6
SOLID
 62
     7
100
AcDbLine
 10
-909.277687175
 20
-172.141865362
 30
0.0
 11
-909.277683021
 21
-135.4002375
 31
0.0
  0
LINE
  5
366
330
A
100
AcDbEntity
  8
WARNER
  6
SOLID
 62
     7
100
AcDbLine
 10
-911.7776842669998
 20
-146.871128527
 30
0.0
 11
-911.7776824169999
 21
-130.511018517
 31
0.0
  0
LINE
  5
367
330
A
100
AcDbEntity
  8
WARNER
  6
SOLID
 62
     7
100
AcDbLine
 10
-907.2776736459999
 20
-52.141868014
 30
0.0
 11
-907.2776872160002
 21
-172.141868014
 31
0.0
  0
LINE
  5
368
330
A
100
AcDbEntity
  8
WARNER
  6
SOLID
 62
     7
100
AcDbLine
 10
-911.7776824169999
 20
-130.511018848
 30
0.0
 11
-911.7776816660001
 21
-123.871128858
 31
0.0
  0
LINE
  5
369
330
A
100
AcDbEntity
  8
WARNER
  6
SOLID
 62
     7
100
AcDbLine
 10
-923.577680666
 20
-117.132187104
 30
0.0
 11
-923.5776771639999
 21
-86.16438453
 31
0.0
  0
LINE
  5
36A
330
A
100
AcDbEntity
  8
WARNER
  6
SOLID
 62
     7
100
AcDbLine
 10
-917.6776797910001
 20
-108.340448697
 30
0.0
 11
-917.677680785
 21
-117.132187949
 31
0.0
  0
LINE
  5
36B
330
A
100
AcDbEntity
  8
WARNER
  6
SOLID
 62
     7
100
AcDbLine
 10
-909.277682019
 20
-126.542935313
 30
0.0
 11
-909.2776824680001
 21
-130.511019211
 31
0.0
  0
LINE
  5
36C
330
A
100
AcDbEntity
  8
WARNER
  6
SOLID
 62
     7
100
AcDbLine
 10
-830.9776753580001
 20
-53.64187661199999
 30
0.0
 11
-830.977704136
 21
-308.133966181
 31
0.0
  0
LINE
  5
36D
330
A
100
AcDbEntity
  8
WARNER
  6
SOLID
 62
     7
100
AcDbLine
 10
-857.27767477
 20
-53.141873648
 30
0.0
 11
-857.277688227
 21
-172.141873648
 31
0.0
  0
LINE
  5
36E
330
A
100
AcDbEntity
  8
WARNER
  6
SOLID
 62
     7
100
AcDbLine
 10
-925.8096240829999
 20
-189.839966374
 30
0.0
 11
-924.7111065989999
 21
-178.176517068
 31
0.0
  0
LINE
  5
36F
330
A
100
AcDbEntity
  8
WARNER
  6
SOLID
 62
     7
100
AcDbLine
 10
-907.2776872160002
 20
-172.141865588
 30
0.0
 11
-858.2776872160001
 21
-172.141871129
 31
0.0
  0
LINE
  5
370
330
A
100
AcDbEntity
  8
WARNER
  6
SOLID
 62
     7
100
AcDbLine
 10
-897.7776890480001
 20
-186.641866369
 30
0.0
 11
-922.0553891389998
 21
-186.641863624
 31
0.0
  0
LINE
  5
371
330
A
100
AcDbEntity
  8
WARNER
  6
SOLID
 62
     7
100
AcDbLine
 10
-919.4818586869999
 20
-186.641863915
 30
0.0
 11
-918.7375431979999
 21
-178.739134915
 31
0.0
  0
LINE
  5
372
330
A
100
AcDbEntity
  8
WARNER
  6
SOLID
 62
     7
100
AcDbLine
 10
-909.277688815
 20
-186.641865069
 30
0.0
 11
-909.277687175
 21
-172.141865069
 31
0.0
  0
LINE
  5
373
330
A
100
AcDbEntity
  8
WARNER
  6
SOLID
 62
     7
100
AcDbLine
 10
-785.80961919
 20
-143.871139308
 30
0.0
 11
-785.8096187999999
 21
-140.427132995
 31
0.0
  0
LINE
  5
374
330
A
100
AcDbEntity
  8
WARNER
  6
SOLID
 62
     7
100
AcDbLine
 10
-785.80961919
 20
-143.871139308
 30
0.0
 11
-785.8413692619999
 21
-143.926132032
 31
0.0
  0
LINE
  5
375
330
A
100
AcDbEntity
  8
WARNER
  6
SOLID
 62
     7
100
AcDbLine
 10
-785.8096116379999
 20
-77.085525362
 30
0.0
 11
-785.8096106819999
 21
-68.640164589
 31
0.0
  0
LINE
  5
376
330
A
100
AcDbEntity
  8
WARNER
  6
SOLID
 62
     7
100
AcDbLine
 10
-785.8096120269999
 20
-80.52953160500001
 30
0.0
 11
-785.8096116379999
 21
-77.085525292
 31
0.0
  0
LINE
  5
377
330
A
100
AcDbEntity
  8
WARNER
  6
SOLID
 62
     7
100
AcDbLine
 10
-785.8096120269999
 20
-80.52953160500001
 30
0.0
 11
-785.841362099
 21
-80.58452432899999
 31
0.0
  0
LINE
  5
378
330
A
100
AcDbEntity
  8
WARNER
  6
SOLID
 62
     7
100
AcDbLine
 10
-785.8096101050001
 20
-63.52953194899999
 30
0.0
 11
-785.8413601649999
 21
-63.474539217
 31
0.0
  0
LINE
  5
379
330
A
100
AcDbEntity
  8
WARNER
  6
SOLID
 62
     7
100
AcDbLine
 10
-785.8096101110001
 20
-63.584171174
 30
0.0
 11
-785.8096101050001
 21
-63.529531948
 31
0.0
  0
LINE
  5
37A
330
A
100
AcDbEntity
  8
WARNER
  6
SOLID
 62
     7
100
AcDbLine
 10
-830.9776753580001
 20
-53.64187661199999
 30
0.0
 11
-831.977675245
 21
-52.641876499
 31
0.0
  0
LINE
  5
37B
330
A
100
AcDbEntity
  8
WARNER
  6
SOLID
 62
     7
100
AcDbLine
 10
-785.8096106819999
 20
-68.64016476
 30
0.0
 11
-785.8096101110001
 21
-63.584171072
 31
0.0
  0
LINE
  5
37C
330
A
100
AcDbEntity
  8
WARNER
  6
SOLID
 62
     7
100
AcDbLine
 10
-785.809617845
 20
-131.981772462
 30
0.0
 11
-785.809617273
 21
-126.925778775
 31
0.0
  0
LINE
  5
37D
330
A
100
AcDbEntity
  8
WARNER
  6
SOLID
 62
     7
100
AcDbLine
 10
-785.809617267
 20
-126.871139651
 30
0.0
 11
-785.8413673269999
 21
-126.81614692
 31
0.0
  0
LINE
  5
37E
330
A
100
AcDbEntity
  8
WARNER
  6
SOLID
 62
     7
100
AcDbLine
 10
-785.809617273
 20
-126.925778877
 30
0.0
 11
-785.809617267
 21
-126.87113965
 31
0.0
  0
LINE
  5
37F
330
A
100
AcDbEntity
  8
WARNER
  6
SOLID
 62
     7
100
AcDbLine
 10
-857.27767477
 20
-53.141873648
 30
0.0
 11
-858.2776746569999
 21
-52.141873535
 31
0.0
  0
LINE
  5
380
330
A
100
AcDbEntity
  8
WARNER
  6
SOLID
 62
     7
100
AcDbLine
 10
-857.27767486
 20
-53.941873632
 30
0.0
 11
-855.97767472
 21
-52.641873785
 31
0.0
  0
LINE
  5
381
330
A
100
AcDbEntity
  8
WARNER
  6
SOLID
 62
     7
100
AcDbLine
 10
-785.8096120269999
 20
-80.52953160500001
 30
0.0
 11
-785.809617267
 21
-126.871140588
 31
0.0
  0
LINE
  5
382
330
A
100
AcDbEntity
  8
WARNER
  6
SOLID
 62
     7
100
AcDbLine
 10
-785.809624083
 20
-52.64188174
 30
0.0
 11
-855.977675225
 21
-52.64187380500001
 31
0.0
  0
LINE
  5
383
330
A
100
AcDbEntity
  8
WARNER
  6
SOLID
 62
     7
100
AcDbLine
 10
-785.8096187999999
 20
-140.427133065
 30
0.0
 11
-785.809617845
 21
-131.981772291
 31
0.0
  0
LINE
  5
384
330
A
100
AcDbEntity
  8
WARNER
  6
SOLID
 62
     7
100
AcDbLine
 10
-921.777702428
 20
-309.254207223
 30
0.0
 11
-921.777701965
 21
-305.164565089
 31
0.0
  0
ARC
  5
385
330
A
100
AcDbEntity
  8
WARNER
  6
SOLID
 62
     7
100
AcDbCircle
 10
-920.777687
 20
-309.254209678
 30
0.0
 40
1.0
100
AcDbArc
 50
179.999993521
 51
269.999993521
  0
ARC
  5
386
330
A
100
AcDbEntity
  8
WARNER
  6
SOLID
 62
     7
100
AcDbCircle
 10
-920.777686537
 20
-305.164567544
 30
0.0
 40
1.0
100
AcDbArc
 50
179.999993521
 51
269.999993521
  0
LINE
  5
387
330
A
100
AcDbEntity
  8
WARNER
  6
SOLID
 62
     7
100
AcDbLine
 10
-909.2776738319999
 20
-54.141867747
 30
0.0
 11
-907.2776736059999
 21
-52.141867974
 31
0.0
  0
TEXT
  5
388
330
A
100
AcDbEntity
  8
WARNER
  6
SOLID
 62
     7
100
AcDbText
 10
-1002.279174805
 20
329.935821533
 30
0.0
 40
30.0
  1
LEO +
 41
0.9146198817714289
 72
     5
 11
-874.232391357
 21
329.935821533
 31
0.0
100
AcDbText
  0
TEXT
  5
389
330
A
100
AcDbEntity
  8
WARNER
  6
SOLID
 62
     7
100
AcDbText
 10
-1002.279174805
 20
284.935821533
 30
0.0
 40
30.0
  1
MAYR
 41
1.240240478518181
 72
     5
 11
-865.8527221679999
 21
284.935821533
 31
0.0
100
AcDbText
  0
ENDSEC
  0
SECTION
  2
OBJECTS
  0
DICTIONARY
  5
19
330
0
100
AcDbDictionary
281
     1
  3
ACAD_COLOR
350
3BA
  3
ACAD_GROUP
350
1A
  3
ACAD_LAYOUT
350
1E
  3
ACAD_MATERIAL
350
38D
  3
ACAD_MLEADERSTYLE
350
3CF
  3
ACAD_MLINESTYLE
350
1B
  3
ACAD_PLOTSETTINGS
350
22
  3
ACAD_PLOTSTYLENAME
350
1F
  3
ACAD_SCALELIST
350
3BD
  3
ACAD_TABLESTYLE
350
3BB
  3
ACAD_VISUALSTYLE
350
3A6
  3
ACDB_RECOMPOSE_DATA
350
446
  3
AcDbVariableDictionary
350
438
  0
DICTIONARY
  5
3D2
330
14
100
AcDbDictionary
280
     1
281
     1
  3
ADSK_XREC_LAYER_RECONCILED
360
3D3
  0
DICTIONARY
  5
3D4
330
23
100
AcDbDictionary
280
     1
281
     1
  3
ADSK_XREC_LAYER_RECONCILED
360
3D5
  0
DICTIONARY
  5
3D6
330
24
100
AcDbDictionary
280
     1
281
     1
  3
ADSK_XREC_LAYER_RECONCILED
360
3D7
  0
DICTIONARY
  5
3D8
330
25
100
AcDbDictionary
280
     1
281
     1
  3
ADSK_XREC_LAYER_RECONCILED
360
3D9
  0
DICTIONARY
  5
3DA
330
26
100
AcDbDictionary
280
     1
281
     1
  3
ADSK_XREC_LAYER_RECONCILED
360
3DB
  0
DICTIONARY
  5
3DC
330
27
100
AcDbDictionary
280
     1
281
     1
  3
ADSK_XREC_LAYER_RECONCILED
360
3DD
  0
DICTIONARY
  5
3DE
330
28
100
AcDbDictionary
280
     1
281
     1
  3
ADSK_XREC_LAYER_RECONCILED
360
3DF
  0
DICTIONARY
  5
3E0
330
29
100
AcDbDictionary
280
     1
281
     1
  3
ADSK_XREC_LAYER_RECONCILED
360
3E1
  0
DICTIONARY
  5
3E2
330
2A
100
AcDbDictionary
280
     1
281
     1
  3
ADSK_XREC_LAYER_RECONCILED
360
3E3
  0
DICTIONARY
  5
3E4
330
2B
100
AcDbDictionary
280
     1
281
     1
  3
ADSK_XREC_LAYER_RECONCILED
360
3E5
  0
DICTIONARY
  5
3E6
330
2C
100
AcDbDictionary
280
     1
281
     1
  3
ADSK_XREC_LAYER_RECONCILED
360
3E7
  0
DICTIONARY
  5
3E8
330
2D
100
AcDbDictionary
280
     1
281
     1
  3
ADSK_XREC_LAYER_RECONCILED
360
3E9
  0
DICTIONARY
  5
3EA
330
2E
100
AcDbDictionary
280
     1
281
     1
  3
ADSK_XREC_LAYER_RECONCILED
360
3EB
  0
DICTIONARY
  5
3EC
330
2F
100
AcDbDictionary
280
     1
281
     1
  3
ADSK_XREC_LAYER_RECONCILED
360
3ED
  0
DICTIONARY
  5
3EE
330
30
100
AcDbDictionary
280
     1
281
     1
  3
ADSK_XREC_LAYER_RECONCILED
360
3EF
  0
DICTIONARY
  5
3F0
330
31
100
AcDbDictionary
280
     1
281
     1
  3
ADSK_XREC_LAYER_RECONCILED
360
3F1
  0
DICTIONARY
  5
3F2
330
32
100
AcDbDictionary
280
     1
281
     1
  3
ADSK_XREC_LAYER_RECONCILED
360
3F3
  0
DICTIONARY
  5
3F4
330
33
100
AcDbDictionary
280
     1
281
     1
  3
ADSK_XREC_LAYER_RECONCILED
360
3F5
  0
DICTIONARY
  5
3F6
330
34
100
AcDbDictionary
280
     1
281
     1
  3
ADSK_XREC_LAYER_RECONCILED
360
3F7
  0
DICTIONARY
  5
3F8
330
35
100
AcDbDictionary
280
     1
281
     1
  3
ADSK_XREC_LAYER_RECONCILED
360
3F9
  0
DICTIONARY
  5
3FA
330
36
100
AcDbDictionary
280
     1
281
     1
  3
ADSK_XREC_LAYER_RECONCILED
360
3FB
  0
DICTIONARY
  5
3FC
330
37
100
AcDbDictionary
280
     1
281
     1
  3
ADSK_XREC_LAYER_RECONCILED
360
3FD
  0
DICTIONARY
  5
3FE
330
38
100
AcDbDictionary
280
     1
281
     1
  3
ADSK_XREC_LAYER_RECONCILED
360
3FF
  0
DICTIONARY
  5
400
330
39
100
AcDbDictionary
280
     1
281
     1
  3
ADSK_XREC_LAYER_RECONCILED
360
401
  0
DICTIONARY
  5
402
330
3A
100
AcDbDictionary
280
     1
281
     1
  3
ADSK_XREC_LAYER_RECONCILED
360
403
  0
DICTIONARY
  5
404
330
3B
100
AcDbDictionary
280
     1
281
     1
  3
ADSK_XREC_LAYER_RECONCILED
360
405
  0
DICTIONARY
  5
406
330
3C
100
AcDbDictionary
280
     1
281
     1
  3
ADSK_XREC_LAYER_RECONCILED
360
407
  0
DICTIONARY
  5
408
330
3D
100
AcDbDictionary
280
     1
281
     1
  3
ADSK_XREC_LAYER_RECONCILED
360
409
  0
DICTIONARY
  5
40A
330
3E
100
AcDbDictionary
280
     1
281
     1
  3
ADSK_XREC_LAYER_RECONCILED
360
40B
  0
DICTIONARY
  5
40C
330
3F
100
AcDbDictionary
280
     1
281
     1
  3
ADSK_XREC_LAYER_RECONCILED
360
40D
  0
DICTIONARY
  5
40E
330
40
100
AcDbDictionary
280
     1
281
     1
  3
ADSK_XREC_LAYER_RECONCILED
360
40F
  0
DICTIONARY
  5
410
330
41
100
AcDbDictionary
280
     1
281
     1
  3
ADSK_XREC_LAYER_RECONCILED
360
411
  0
DICTIONARY
  5
412
330
42
100
AcDbDictionary
280
     1
281
     1
  3
ADSK_XREC_LAYER_RECONCILED
360
413
  0
DICTIONARY
  5
414
330
43
100
AcDbDictionary
280
     1
281
     1
  3
ADSK_XREC_LAYER_RECONCILED
360
415
  0
DICTIONARY
  5
416
330
44
100
AcDbDictionary
280
     1
281
     1
  3
ADSK_XREC_LAYER_RECONCILED
360
417
  0
DICTIONARY
  5
418
330
45
100
AcDbDictionary
280
     1
281
     1
  3
ADSK_XREC_LAYER_RECONCILED
360
419
  0
DICTIONARY
  5
41A
330
46
100
AcDbDictionary
280
     1
281
     1
  3
ADSK_XREC_LAYER_RECONCILED
360
41B
  0
DICTIONARY
  5
41C
330
47
100
AcDbDictionary
280
     1
281
     1
  3
ADSK_XREC_LAYER_RECONCILED
360
41D
  0
DICTIONARY
  5
41E
330
48
100
AcDbDictionary
280
     1
281
     1
  3
ADSK_XREC_LAYER_RECONCILED
360
41F
  0
DICTIONARY
  5
420
330
49
100
AcDbDictionary
280
     1
281
     1
  3
ADSK_XREC_LAYER_RECONCILED
360
421
  0
DICTIONARY
  5
422
330
4A
100
AcDbDictionary
280
     1
281
     1
  3
ADSK_XREC_LAYER_RECONCILED
360
423
  0
DICTIONARY
  5
424
330
4B
100
AcDbDictionary
280
     1
281
     1
  3
ADSK_XREC_LAYER_RECONCILED
360
425
  0
DICTIONARY
  5
426
330
4C
100
AcDbDictionary
280
     1
281
     1
  3
ADSK_XREC_LAYER_RECONCILED
360
427
  0
DICTIONARY
  5
428
330
4D
100
AcDbDictionary
280
     1
281
     1
  3
ADSK_XREC_LAYER_RECONCILED
360
429
  0
DICTIONARY
  5
42A
330
4E
100
AcDbDictionary
280
     1
281
     1
  3
ADSK_XREC_LAYER_RECONCILED
360
42B
  0
DICTIONARY
  5
42C
330
4F
100
AcDbDictionary
280
     1
281
     1
  3
ADSK_XREC_LAYER_RECONCILED
360
42D
  0
DICTIONARY
  5
42E
330
50
100
AcDbDictionary
280
     1
281
     1
  3
ADSK_XREC_LAYER_RECONCILED
360
42F
  0
DICTIONARY
  5
430
330
51
100
AcDbDictionary
280
     1
281
     1
  3
ADSK_XREC_LAYER_RECONCILED
360
431
  0
DICTIONARY
  5
432
330
52
100
AcDbDictionary
280
     1
281
     1
  3
ADSK_XREC_LAYER_RECONCILED
360
433
  0
DICTIONARY
  5
434
330
53
100
AcDbDictionary
280
     1
281
     1
  3
ADSK_XREC_LAYER_RECONCILED
360
435
  0
DICTIONARY
  5
436
330
54
100
AcDbDictionary
280
     1
281
     1
  3
ADSK_XREC_LAYER_RECONCILED
360
437
  0
DICTIONARY
  5
3BA
102
{ACAD_REACTORS
330
19
102
}
330
19
100
AcDbDictionary
281
     1
  0
DICTIONARY
  5
1A
102
{ACAD_REACTORS
330
19
102
}
330
19
100
AcDbDictionary
281
     1
  0
DICTIONARY
  5
1E
102
{ACAD_REACTORS
330
19
102
}
330
19
100
AcDbDictionary
281
     1
  3
Layout1
350
21
  3
Model
350
20
  0
DICTIONARY
  5
38D
102
{ACAD_REACTORS
330
19
102
}
330
19
100
AcDbDictionary
281
     1
  3
ByBlock
350
396
  3
ByLayer
350
38E
  3
Global
350
39E
  0
DICTIONARY
  5
3CF
102
{ACAD_REACTORS
330
19
102
}
330
19
100
AcDbDictionary
281
     1
  3
Standard
350
3D0
  0
DICTIONARY
  5
1B
102
{ACAD_REACTORS
330
19
102
}
330
19
100
AcDbDictionary
281
     1
  3
Standard
350
1C
  0
DICTIONARY
  5
22
102
{ACAD_REACTORS
330
19
102
}
330
19
100
AcDbDictionary
281
     1
  0
ACDBDICTIONARYWDFLT
  5
1F
102
{ACAD_REACTORS
330
19
102
}
330
19
100
AcDbDictionary
281
     1
  3
Normal
350
1D
100
AcDbDictionaryWithDefault
340
1D
  0
DICTIONARY
  5
3BD
102
{ACAD_REACTORS
330
19
102
}
330
19
100
AcDbDictionary
281
     1
  3
A0
350
3BE
  3
A1
350
3BF
  3
A2
350
3C0
  3
A3
350
3C1
  3
A4
350
3C2
  3
A5
350
3C3
  3
A6
350
3C4
  3
A7
350
3C5
  3
A8
350
3C6
  3
A9
350
3C7
  3
B0
350
3C8
  3
B1
350
3C9
  3
B2
350
3CA
  3
B3
350
3CB
  3
B4
350
3CC
  3
B5
350
3CD
  3
B6
350
3CE
  0
DICTIONARY
  5
3BB
102
{ACAD_REACTORS
330
19
102
}
330
19
100
AcDbDictionary
281
     1
  3
Standard
350
3BC
  0
DICTIONARY
  5
3A6
102
{ACAD_REACTORS
330
19
102
}
330
19
100
AcDbDictionary
281
     1
  3
2dWireframe
350
3AC
  3
3D Hidden
350
3AE
  3
3dWireframe
350
3AD
  3
Basic
350
3AB
  3
Brighten
350
3B2
  3
ColorChange
350
3B6
  3
Conceptual
350
3AF
  3
Dim
350
3B1
  3
EdgeColorOff
350
3B9
  3
Facepattern
350
3B5
  3
Flat
350
3A7
  3
FlatWithEdges
350
3A8
  3
Gouraud
350
3A9
  3
GouraudWithEdges
350
3AA
  3
JitterOff
350
3B7
  3
Linepattern
350
3B4
  3
OverhangOff
350
3B8
  3
Realistic
350
3B0
  3
Thicken
350
3B3
  0
XRECORD
  5
446
102
{ACAD_REACTORS
330
19
102
}
330
19
100
AcDbXrecord
280
     1
 90
        1
330
3BC
  0
DICTIONARY
  5
438
102
{ACAD_REACTORS
330
19
102
}
330
19
100
AcDbDictionary
281
     1
  3
CANNOSCALE
350
43C
  3
CMLEADERSTYLE
350
43A
  3
CTABLESTYLE
350
439
  3
LAYEREVAL
350
43E
  3
LAYERNOTIFY
350
43F
  3
LIGHTINGUNITS
350
43D
  3
MSLTSCALE
350
43B
  0
XRECORD
  5
3D3
102
{ACAD_REACTORS
330
3D2
102
}
330
3D2
100
AcDbXrecord
280
     1
290
     1
  0
XRECORD
  5
3D5
102
{ACAD_REACTORS
330
3D4
102
}
330
3D4
100
AcDbXrecord
280
     1
290
     1
  0
XRECORD
  5
3D7
102
{ACAD_REACTORS
330
3D6
102
}
330
3D6
100
AcDbXrecord
280
     1
290
     1
  0
XRECORD
  5
3D9
102
{ACAD_REACTORS
330
3D8
102
}
330
3D8
100
AcDbXrecord
280
     1
290
     1
  0
XRECORD
  5
3DB
102
{ACAD_REACTORS
330
3DA
102
}
330
3DA
100
AcDbXrecord
280
     1
290
     1
  0
XRECORD
  5
3DD
102
{ACAD_REACTORS
330
3DC
102
}
330
3DC
100
AcDbXrecord
280
     1
290
     1
  0
XRECORD
  5
3DF
102
{ACAD_REACTORS
330
3DE
102
}
330
3DE
100
AcDbXrecord
280
     1
290
     1
  0
XRECORD
  5
3E1
102
{ACAD_REACTORS
330
3E0
102
}
330
3E0
100
AcDbXrecord
280
     1
290
     1
  0
XRECORD
  5
3E3
102
{ACAD_REACTORS
330
3E2
102
}
330
3E2
100
AcDbXrecord
280
     1
290
     1
  0
XRECORD
  5
3E5
102
{ACAD_REACTORS
330
3E4
102
}
330
3E4
100
AcDbXrecord
280
     1
290
     1
  0
XRECORD
  5
3E7
102
{ACAD_REACTORS
330
3E6
102
}
330
3E6
100
AcDbXrecord
280
     1
290
     1
  0
XRECORD
  5
3E9
102
{ACAD_REACTORS
330
3E8
102
}
330
3E8
100
AcDbXrecord
280
     1
290
     1
  0
XRECORD
  5
3EB
102
{ACAD_REACTORS
330
3EA
102
}
330
3EA
100
AcDbXrecord
280
     1
290
     1
  0
XRECORD
  5
3ED
102
{ACAD_REACTORS
330
3EC
102
}
330
3EC
100
AcDbXrecord
280
     1
290
     1
  0
XRECORD
  5
3EF
102
{ACAD_REACTORS
330
3EE
102
}
330
3EE
100
AcDbXrecord
280
     1
290
     1
  0
XRECORD
  5
3F1
102
{ACAD_REACTORS
330
3F0
102
}
330
3F0
100
AcDbXrecord
280
     1
290
     1
  0
XRECORD
  5
3F3
102
{ACAD_REACTORS
330
3F2
102
}
330
3F2
100
AcDbXrecord
280
     1
290
     1
  0
XRECORD
  5
3F5
102
{ACAD_REACTORS
330
3F4
102
}
330
3F4
100
AcDbXrecord
280
     1
290
     1
  0
XRECORD
  5
3F7
102
{ACAD_REACTORS
330
3F6
102
}
330
3F6
100
AcDbXrecord
280
     1
290
     1
  0
XRECORD
  5
3F9
102
{ACAD_REACTORS
330
3F8
102
}
330
3F8
100
AcDbXrecord
280
     1
290
     1
  0
XRECORD
  5
3FB
102
{ACAD_REACTORS
330
3FA
102
}
330
3FA
100
AcDbXrecord
280
     1
290
     1
  0
XRECORD
  5
3FD
102
{ACAD_REACTORS
330
3FC
102
}
330
3FC
100
AcDbXrecord
280
     1
290
     1
  0
XRECORD
  5
3FF
102
{ACAD_REACTORS
330
3FE
102
}
330
3FE
100
AcDbXrecord
280
     1
290
     1
  0
XRECORD
  5
401
102
{ACAD_REACTORS
330
400
102
}
330
400
100
AcDbXrecord
280
     1
290
     1
  0
XRECORD
  5
403
102
{ACAD_REACTORS
330
402
102
}
330
402
100
AcDbXrecord
280
     1
290
     1
  0
XRECORD
  5
405
102
{ACAD_REACTORS
330
404
102
}
330
404
100
AcDbXrecord
280
     1
290
     1
  0
XRECORD
  5
407
102
{ACAD_REACTORS
330
406
102
}
330
406
100
AcDbXrecord
280
     1
290
     1
  0
XRECORD
  5
409
102
{ACAD_REACTORS
330
408
102
}
330
408
100
AcDbXrecord
280
     1
290
     1
  0
XRECORD
  5
40B
102
{ACAD_REACTORS
330
40A
102
}
330
40A
100
AcDbXrecord
280
     1
290
     1
  0
XRECORD
  5
40D
102
{ACAD_REACTORS
330
40C
102
}
330
40C
100
AcDbXrecord
280
     1
290
     1
  0
XRECORD
  5
40F
102
{ACAD_REACTORS
330
40E
102
}
330
40E
100
AcDbXrecord
280
     1
290
     1
  0
XRECORD
  5
411
102
{ACAD_REACTORS
330
410
102
}
330
410
100
AcDbXrecord
280
     1
290
     1
  0
XRECORD
  5
413
102
{ACAD_REACTORS
330
412
102
}
330
412
100
AcDbXrecord
280
     1
290
     1
  0
XRECORD
  5
415
102
{ACAD_REACTORS
330
414
102
}
330
414
100
AcDbXrecord
280
     1
290
     1
  0
XRECORD
  5
417
102
{ACAD_REACTORS
330
416
102
}
330
416
100
AcDbXrecord
280
     1
290
     1
  0
XRECORD
  5
419
102
{ACAD_REACTORS
330
418
102
}
330
418
100
AcDbXrecord
280
     1
290
     1
  0
XRECORD
  5
41B
102
{ACAD_REACTORS
330
41A
102
}
330
41A
100
AcDbXrecord
280
     1
290
     1
  0
XRECORD
  5
41D
102
{ACAD_REACTORS
330
41C
102
}
330
41C
100
AcDbXrecord
280
     1
290
     1
  0
XRECORD
  5
41F
102
{ACAD_REACTORS
330
41E
102
}
330
41E
100
AcDbXrecord
280
     1
290
     1
  0
XRECORD
  5
421
102
{ACAD_REACTORS
330
420
102
}
330
420
100
AcDbXrecord
280
     1
290
     1
  0
XRECORD
  5
423
102
{ACAD_REACTORS
330
422
102
}
330
422
100
AcDbXrecord
280
     1
290
     1
  0
XRECORD
  5
425
102
{ACAD_REACTORS
330
424
102
}
330
424
100
AcDbXrecord
280
     1
290
     1
  0
XRECORD
  5
427
102
{ACAD_REACTORS
330
426
102
}
330
426
100
AcDbXrecord
280
     1
290
     1
  0
XRECORD
  5
429
102
{ACAD_REACTORS
330
428
102
}
330
428
100
AcDbXrecord
280
     1
290
     1
  0
XRECORD
  5
42B
102
{ACAD_REACTORS
330
42A
102
}
330
42A
100
AcDbXrecord
280
     1
290
     1
  0
XRECORD
  5
42D
102
{ACAD_REACTORS
330
42C
102
}
330
42C
100
AcDbXrecord
280
     1
290
     1
  0
XRECORD
  5
42F
102
{ACAD_REACTORS
330
42E
102
}
330
42E
100
AcDbXrecord
280
     1
290
     1
  0
XRECORD
  5
431
102
{ACAD_REACTORS
330
430
102
}
330
430
100
AcDbXrecord
280
     1
290
     1
  0
XRECORD
  5
433
102
{ACAD_REACTORS
330
432
102
}
330
432
100
AcDbXrecord
280
     1
290
     1
  0
XRECORD
  5
435
102
{ACAD_REACTORS
330
434
102
}
330
434
100
AcDbXrecord
280
     1
290
     1
  0
XRECORD
  5
437
102
{ACAD_REACTORS
330
436
102
}
330
436
100
AcDbXrecord
280
     1
290
     1
  0
LAYOUT
  5
21
102
{ACAD_REACTORS
330
1E
102
}
330
1E
100
AcDbPlotSettings
  1

  2

  4

  6

 40
0.0
 41
0.0
 42
0.0
 43
0.0
 44
0.0
 45
0.0
 46
0.0
 47
0.0
 48
0.0
 49
0.0
140
0.0
141
0.0
142
1.0
143
1.0
 70
     0
 72
     0
 73
     0
 74
     0
  7

 75
     0
147
1.0
 76
     0
 77
     2
 78
   300
148
0.0
149
0.0
100
AcDbLayout
  1
Layout1
 70
     0
 71
     1
 10
0.0
 20
0.0
 11
12.0
 21
9.0
 12
0.0
 22
0.0
 32
0.0
 14
1.000000000000000E+20
 24
1.000000000000000E+20
 34
1.000000000000000E+20
 15
-1.000000000000000E+20
 25
-1.000000000000000E+20
 35
-1.000000000000000E+20
146
0.0
 13
0.0
 23
0.0
 33
0.0
 16
1.0
 26
0.0
 36
0.0
 17
0.0
 27
1.0
 37
0.0
 76
     0
330
B
  0
LAYOUT
  5
20
102
{ACAD_REACTORS
330
1E
102
}
330
1E
100
AcDbPlotSettings
  1

  2

  4

  6

 40
0.0
 41
0.0
 42
0.0
 43
0.0
 44
0.0
 45
0.0
 46
0.0
 47
0.0
 48
0.0
 49
0.0
140
0.0
141
0.0
142
1.0
143
1.0
 70
  1024
 72
     0
 73
     0
 74
     0
  7

 75
     0
147
1.0
 76
     0
 77
     2
 78
   300
148
0.0
149
0.0
100
AcDbLayout
  1
Model
 70
     0
 71
     0
 10
0.0
 20
0.0
 11
0.0
 21
0.0
 12
0.0
 22
0.0
 32
0.0
 14
0.0
 24
0.0
 34
0.0
 15
0.0
 25
0.0
 35
0.0
146
0.0
 13
0.0
 23
0.0
 33
0.0
 16
0.0
 26
0.0
 36
0.0
 17
0.0
 27
0.0
 37
0.0
 76
     0
330
A
331
15
  0
MATERIAL
  5
396
102
{ACAD_XDICTIONARY
360
397
102
}
102
{ACAD_REACTORS
330
38D
102
}
330
38D
100
AcDbMaterial
  1
ByBlock
 72
     0
 43
0.0208333333333333
 43
0.0
 43
0.0
 43
0.0
 43
0.0
 43
0.0208333333333333
 43
0.0
 43
0.0
 43
0.0
 43
0.0
 43
1.0
 43
0.0
 43
0.0
 43
0.0
 43
0.0
 43
1.0
 77
     0
 47
0.0208333333333333
 47
0.0
 47
0.0
 47
0.0
 47
0.0
 47
0.0208333333333333
 47
0.0
 47
0.0
 47
0.0
 47
0.0
 47
1.0
 47
0.0
 47
0.0
 47
0.0
 47
0.0
 47
1.0
171
     0
 49
0.0208333333333333
 49
0.0
 49
0.0
 49
0.0
 49
0.0
 49
0.0208333333333333
 49
0.0
 49
0.0
 49
0.0
 49
0.0
 49
1.0
 49
0.0
 49
0.0
 49
0.0
 49
0.0
 49
1.0
175
     0
142
0.0208333333333333
142
0.0
142
0.0
142
0.0
142
0.0
142
0.0208333333333333
142
0.0
142
0.0
142
0.0
142
0.0
142
1.0
142
0.0
142
0.0
142
0.0
142
0.0
142
1.0
179
     0
144
0.0208333333333333
144
0.0
144
0.0
144
0.0
144
0.0
144
0.0208333333333333
144
0.0
144
0.0
144
0.0
144
0.0
144
1.0
144
0.0
144
0.0
144
0.0
144
0.0
144
1.0
147
0.0208333333333333
147
0.0
147
0.0
147
0.0
147
0.0
147
0.0208333333333333
147
0.0
147
0.0
147
0.0
147
0.0
147
1.0
147
0.0
147
0.0
147
0.0
147
0.0
147
1.0
  0
MATERIAL
  5
38E
102
{ACAD_XDICTIONARY
360
38F
102
}
102
{ACAD_REACTORS
330
38D
102
}
330
38D
100
AcDbMaterial
  1
ByLayer
 72
     0
 43
0.0208333333333333
 43
0.0
 43
0.0
 43
0.0
 43
0.0
 43
0.0208333333333333
 43
0.0
 43
0.0
 43
0.0
 43
0.0
 43
1.0
 43
0.0
 43
0.0
 43
0.0
 43
0.0
 43
1.0
 77
     0
 47
0.0208333333333333
 47
0.0
 47
0.0
 47
0.0
 47
0.0
 47
0.0208333333333333
 47
0.0
 47
0.0
 47
0.0
 47
0.0
 47
1.0
 47
0.0
 47
0.0
 47
0.0
 47
0.0
 47
1.0
171
     0
 49
0.0208333333333333
 49
0.0
 49
0.0
 49
0.0
 49
0.0
 49
0.0208333333333333
 49
0.0
 49
0.0
 49
0.0
 49
0.0
 49
1.0
 49
0.0
 49
0.0
 49
0.0
 49
0.0
 49
1.0
175
     0
142
0.0208333333333333
142
0.0
142
0.0
142
0.0
142
0.0
142
0.0208333333333333
142
0.0
142
0.0
142
0.0
142
0.0
142
1.0
142
0.0
142
0.0
142
0.0
142
0.0
142
1.0
179
     0
144
0.0208333333333333
144
0.0
144
0.0
144
0.0
144
0.0
144
0.0208333333333333
144
0.0
144
0.0
144
0.0
144
0.0
144
1.0
144
0.0
144
0.0
144
0.0
144
0.0
144
1.0
147
0.0208333333333333
147
0.0
147
0.0
147
0.0
147
0.0
147
0.0208333333333333
147
0.0
147
0.0
147
0.0
147
0.0
147
1.0
147
0.0
147
0.0
147
0.0
147
0.0
147
1.0
  0
MATERIAL
  5
39E
102
{ACAD_XDICTIONARY
360
39F
102
}
102
{ACAD_REACTORS
330
38D
102
}
330
38D
100
AcDbMaterial
  1
Global
 72
     0
 43
0.0208333333333333
 43
0.0
 43
0.0
 43
0.0
 43
0.0
 43
0.0208333333333333
 43
0.0
 43
0.0
 43
0.0
 43
0.0
 43
1.0
 43
0.0
 43
0.0
 43
0.0
 43
0.0
 43
1.0
 77
     0
 47
0.0208333333333333
 47
0.0
 47
0.0
 47
0.0
 47
0.0
 47
0.0208333333333333
 47
0.0
 47
0.0
 47
0.0
 47
0.0
 47
1.0
 47
0.0
 47
0.0
 47
0.0
 47
0.0
 47
1.0
171
     0
 49
0.0208333333333333
 49
0.0
 49
0.0
 49
0.0
 49
0.0
 49
0.0208333333333333
 49
0.0
 49
0.0
 49
0.0
 49
0.0
 49
1.0
 49
0.0
 49
0.0
 49
0.0
 49
0.0
 49
1.0
175
     0
142
0.0208333333333333
142
0.0
142
0.0
142
0.0
142
0.0
142
0.0208333333333333
142
0.0
142
0.0
142
0.0
142
0.0
142
1.0
142
0.0
142
0.0
142
0.0
142
0.0
142
1.0
179
     0
144
0.0208333333333333
144
0.0
144
0.0
144
0.0
144
0.0
144
0.0208333333333333
144
0.0
144
0.0
144
0.0
144
0.0
144
1.0
144
0.0
144
0.0
144
0.0
144
0.0
144
1.0
147
0.0208333333333333
147
0.0
147
0.0
147
0.0
147
0.0
147
0.0208333333333333
147
0.0
147
0.0
147
0.0
147
0.0
147
1.0
147
0.0
147
0.0
147
0.0
147
0.0
147
1.0
  0
MLEADERSTYLE
  5
3D0
102
{ACAD_REACTORS
330
3CF
102
}
330
3CF
100
AcDbMLeaderStyle
179
     2
170
     2
171
     1
172
     0
 90
        2
 40
0.0
 41
0.0
173
     1
 91
-1056964608
340
11
 92
       -2
290
     1
 42
2.0
291
     1
 43
0.36
  3
Standard
 44
4.0
300

342
17
174
     1
178
     6
175
     1
176
     0
 93
-1056964608
 45
4.0
292
     0
297
     0
 46
4.0
 94
-1056964608
 47
1.0
 49
1.0
140
1.0
293
     1
141
0.0
294
     1
177
     0
142
1.0
295
     0
296
     0
143
0.125
271
     0
272
     9
273
     9
  0
MLINESTYLE
  5
1C
102
{ACAD_REACTORS
330
1B
102
}
330
1B
100
AcDbMlineStyle
  2
STANDARD
 70
     0
  3

 62
     0
 51
90.0
 52
90.0
 71
     2
 49
0.5
 62
   256
  6
BYLAYER
 49
-0.5
 62
   256
  6
BYLAYER
  0
ACDBPLACEHOLDER
  5
1D
102
{ACAD_REACTORS
330
1F
102
}
330
1F
  0
SCALE
  5
3BE
102
{ACAD_REACTORS
330
3BD
102
}
330
3BD
100
AcDbScale
 70
     0
300
1:1
140
1.0
141
1.0
290
     1
  0
SCALE
  5
3BF
102
{ACAD_REACTORS
330
3BD
102
}
330
3BD
100
AcDbScale
 70
     0
300
1:2
140
1.0
141
2.0
290
     0
  0
SCALE
  5
3C0
102
{ACAD_REACTORS
330
3BD
102
}
330
3BD
100
AcDbScale
 70
     0
300
1:4
140
1.0
141
4.0
290
     0
  0
SCALE
  5
3C1
102
{ACAD_REACTORS
330
3BD
102
}
330
3BD
100
AcDbScale
 70
     0
300
1:5
140
1.0
141
5.0
290
     0
  0
SCALE
  5
3C2
102
{ACAD_REACTORS
330
3BD
102
}
330
3BD
100
AcDbScale
 70
     0
300
1:8
140
1.0
141
8.0
290
     0
  0
SCALE
  5
3C3
102
{ACAD_REACTORS
330
3BD
102
}
330
3BD
100
AcDbScale
 70
     0
300
1:10
140
1.0
141
10.0
290
     0
  0
SCALE
  5
3C4
102
{ACAD_REACTORS
330
3BD
102
}
330
3BD
100
AcDbScale
 70
     0
300
1:16
140
1.0
141
16.0
290
     0
  0
SCALE
  5
3C5
102
{ACAD_REACTORS
330
3BD
102
}
330
3BD
100
AcDbScale
 70
     0
300
1:20
140
1.0
141
20.0
290
     0
  0
SCALE
  5
3C6
102
{ACAD_REACTORS
330
3BD
102
}
330
3BD
100
AcDbScale
 70
     0
300
1:30
140
1.0
141
30.0
290
     0
  0
SCALE
  5
3C7
102
{ACAD_REACTORS
330
3BD
102
}
330
3BD
100
AcDbScale
 70
     0
300
1:40
140
1.0
141
40.0
290
     0
  0
SCALE
  5
3C8
102
{ACAD_REACTORS
330
3BD
102
}
330
3BD
100
AcDbScale
 70
     0
300
1:50
140
1.0
141
50.0
290
     0
  0
SCALE
  5
3C9
102
{ACAD_REACTORS
330
3BD
102
}
330
3BD
100
AcDbScale
 70
     0
300
1:100
140
1.0
141
100.0
290
     0
  0
SCALE
  5
3CA
102
{ACAD_REACTORS
330
3BD
102
}
330
3BD
100
AcDbScale
 70
     0
300
2:1
140
2.0
141
1.0
290
     0
  0
SCALE
  5
3CB
102
{ACAD_REACTORS
330
3BD
102
}
330
3BD
100
AcDbScale
 70
     0
300
4:1
140
4.0
141
1.0
290
     0
  0
SCALE
  5
3CC
102
{ACAD_REACTORS
330
3BD
102
}
330
3BD
100
AcDbScale
 70
     0
300
8:1
140
8.0
141
1.0
290
     0
  0
SCALE
  5
3CD
102
{ACAD_REACTORS
330
3BD
102
}
330
3BD
100
AcDbScale
 70
     0
300
10:1
140
10.0
141
1.0
290
     0
  0
SCALE
  5
3CE
102
{ACAD_REACTORS
330
3BD
102
}
330
3BD
100
AcDbScale
 70
     0
300
100:1
140
100.0
141
1.0
290
     0
  0
TABLESTYLE
  5
3BC
102
{ACAD_XDICTIONARY
360
444
102
}
102
{ACAD_REACTORS
330
3BB
102
}
330
3BB
100
AcDbTableStyle
280
     0
  3
Standard
 70
     0
 71
     0
 40
1.5
 41
1.5
280
     0
281
     0
  7
Standard
140
4.5
170
     2
 62
     0
 63
     7
283
     0
 90
      512
 91
        0
  1

274
    -2
284
     1
 64
     0
275
    -2
285
     1
 65
     0
276
    -2
286
     1
 66
     0
277
    -2
287
     1
 67
     0
278
    -2
288
     1
 68
     0
279
    -2
289
     1
 69
     0
  7
Standard
140
6.0
170
     5
 62
     0
 63
     7
283
     0
 90
      512
 91
        0
  1

274
    -2
284
     1
 64
     0
275
    -2
285
     1
 65
     0
276
    -2
286
     1
 66
     0
277
    -2
287
     1
 67
     0
278
    -2
288
     1
 68
     0
279
    -2
289
     1
 69
     0
  7
Standard
140
4.5
170
     5
 62
     0
 63
     7
283
     0
 90
      512
 91
        0
  1

274
    -2
284
     1
 64
     0
275
    -2
285
     1
 65
     0
276
    -2
286
     1
 66
     0
277
    -2
287
     1
 67
     0
278
    -2
288
     1
 68
     0
279
    -2
289
     1
 69
     0
  0
VISUALSTYLE
  5
3AC
102
{ACAD_REACTORS
330
3A6
102
}
330
3A6
100
AcDbVisualStyle
  2
2dWireframe
 70
     4
177
     2
291
     0
 71
     0
176
     1
 72
     2
176
     1
 73
     0
176
     1
 90
        0
176
     1
 40
0.6
176
     1
 41
30.0
176
     1
 63
     7
421
 16777215
176
     1
 74
     1
176
     1
 91
        4
176
     1
 64
     7
176
     1
 65
   257
176
     1
 75
     1
176
     1
175
     1
176
     1
 42
1.0
176
     1
 92
        0
176
     1
 66
   257
176
     1
 43
1.0
176
     1
 76
     1
176
     1
 77
     6
176
     1
 78
     2
176
     1
 67
     7
176
     1
 79
     5
176
     1
170
     0
176
     1
171
     0
176
     1
290
     0
176
     1
 93
        1
176
     1
 44
0.0
176
     1
173
     0
176
     1
  0
VISUALSTYLE
  5
3AE
102
{ACAD_REACTORS
330
3A6
102
}
330
3A6
100
AcDbVisualStyle
  2
3D Hidden
 70
     6
177
     2
291
     0
 71
     1
176
     1
 72
     2
176
     1
 73
     2
176
     1
 90
        0
176
     1
 40
0.6
176
     1
 41
30.0
176
     1
 63
     7
421
 16777215
176
     1
 74
     2
176
     1
 91
        2
176
     1
 64
     7
176
     1
 65
   257
176
     1
 75
     2
176
     1
175
     1
176
     1
 42
179.0
176
     1
 92
        0
176
     1
 66
   257
176
     1
 43
1.0
176
     1
 76
     1
176
     1
 77
     6
176
     1
 78
     2
176
     1
 67
     7
176
     1
 79
     3
176
     1
170
     0
176
     1
171
     0
176
     1
290
     0
176
     1
 93
        1
176
     1
 44
0.0
176
     1
173
     0
176
     1
  0
VISUALSTYLE
  5
3AD
102
{ACAD_REACTORS
330
3A6
102
}
330
3A6
100
AcDbVisualStyle
  2
3dWireframe
 70
     5
177
     2
291
     0
 71
     0
176
     1
 72
     2
176
     1
 73
     0
176
     1
 90
        0
176
     1
 40
0.6
176
     1
 41
30.0
176
     1
 63
     7
421
 16777215
176
     1
 74
     1
176
     1
 91
        4
176
     1
 64
     7
176
     1
 65
   257
176
     1
 75
     1
176
     1
175
     1
176
     1
 42
1.0
176
     1
 92
        0
176
     1
 66
   257
176
     1
 43
1.0
176
     1
 76
     1
176
     1
 77
     6
176
     1
 78
     2
176
     1
 67
     7
176
     1
 79
     5
176
     1
170
     0
176
     1
171
     0
176
     1
290
     0
176
     1
 93
        1
176
     1
 44
0.0
176
     1
173
     0
176
     1
  0
VISUALSTYLE
  5
3AB
102
{ACAD_REACTORS
330
3A6
102
}
330
3A6
100
AcDbVisualStyle
  2
Basic
 70
     7
177
     2
291
     1
 71
     1
176
     1
 72
     0
176
     1
 73
     1
176
     1
 90
        0
176
     1
 40
0.6
176
     1
 41
30.0
176
     1
 63
     7
421
 16777215
176
     1
 74
     0
176
     1
 91
        4
176
     1
 64
     7
176
     1
 65
   257
176
     1
 75
     1
176
     1
175
     1
176
     1
 42
1.0
176
     1
 92
        8
176
     1
 66
     7
176
     1
 43
1.0
176
     1
 76
     1
176
     1
 77
     6
176
     1
 78
     2
176
     1
 67
     7
176
     1
 79
     5
176
     1
170
     0
176
     1
171
     0
176
     1
290
     0
176
     1
 93
        1
176
     1
 44
0.0
176
     1
173
     0
176
     1
  0
VISUALSTYLE
  5
3B2
102
{ACAD_REACTORS
330
3A6
102
}
330
3A6
100
AcDbVisualStyle
  2
Brighten
 70
    12
177
     2
291
     1
 71
     2
176
     1
 72
     2
176
     1
 73
     0
176
     1
 90
        0
176
     1
 40
0.6
176
     1
 41
30.0
176
     1
 63
     7
421
 16777215
176
     1
 74
     1
176
     1
 91
        4
176
     1
 64
     7
176
     1
 65
   257
176
     1
 75
     1
176
     1
175
     1
176
     1
 42
1.0
176
     1
 92
        8
176
     1
 66
     7
176
     1
 43
1.0
176
     1
 76
     1
176
     1
 77
     6
176
     1
 78
     2
176
     1
 67
     7
176
     1
 79
     5
176
     1
170
     0
176
     1
171
     0
176
     1
290
     0
176
     1
 93
        1
176
     1
 44
50.0
176
     1
173
     0
176
     1
  0
VISUALSTYLE
  5
3B6
102
{ACAD_REACTORS
330
3A6
102
}
330
3A6
100
AcDbVisualStyle
  2
ColorChange
 70
    16
177
     2
291
     1
 71
     2
176
     1
 72
     2
176
     1
 73
     3
176
     1
 90
        0
176
     1
 40
0.6
176
     1
 41
30.0
176
     1
 63
     8
421
  8421504
176
     1
 74
     1
176
     1
 91
        4
176
     1
 64
     7
176
     1
 65
   257
176
     1
 75
     1
176
     1
175
     1
176
     1
 42
1.0
176
     1
 92
        8
176
     1
 66
     8
424
  8421504
176
     1
 43
1.0
176
     1
 76
     1
176
     1
 77
     6
176
     1
 78
     2
176
     1
 67
     7
176
     1
 79
     5
176
     1
170
     0
176
     1
171
     0
176
     1
290
     0
176
     1
 93
        1
176
     1
 44
0.0
176
     1
173
     0
176
     1
  0
VISUALSTYLE
  5
3AF
102
{ACAD_REACTORS
330
3A6
102
}
330
3A6
100
AcDbVisualStyle
  2
Conceptual
 70
     9
177
     2
291
     0
 71
     3
176
     1
 72
     2
176
     1
 73
     0
176
     1
 90
        0
176
     1
 40
0.6
176
     1
 41
30.0
176
     1
 63
     7
421
 16777215
176
     1
 74
     2
176
     1
 91
        2
176
     1
 64
     7
176
     1
 65
   257
176
     1
 75
     1
176
     1
175
     1
176
     1
 42
179.0
176
     1
 92
        8
176
     1
 66
     7
176
     1
 43
1.0
176
     1
 76
     1
176
     1
 77
     6
176
     1
 78
     2
176
     1
 67
     7
176
     1
 79
     3
176
     1
170
     0
176
     1
171
     0
176
     1
290
     0
176
     1
 93
        1
176
     1
 44
0.0
176
     1
173
     0
176
     1
  0
VISUALSTYLE
  5
3B1
102
{ACAD_REACTORS
330
3A6
102
}
330
3A6
100
AcDbVisualStyle
  2
Dim
 70
    11
177
     2
291
     1
 71
     2
176
     1
 72
     2
176
     1
 73
     0
176
     1
 90
        0
176
     1
 40
0.6
176
     1
 41
30.0
176
     1
 63
     7
421
 16777215
176
     1
 74
     1
176
     1
 91
        4
176
     1
 64
     7
176
     1
 65
   257
176
     1
 75
     1
176
     1
175
     1
176
     1
 42
1.0
176
     1
 92
        8
176
     1
 66
     7
176
     1
 43
1.0
176
     1
 76
     1
176
     1
 77
     6
176
     1
 78
     2
176
     1
 67
     7
176
     1
 79
     5
176
     1
170
     0
176
     1
171
     0
176
     1
290
     0
176
     1
 93
        1
176
     1
 44
-50.0
176
     1
173
     0
176
     1
  0
VISUALSTYLE
  5
3B9
102
{ACAD_REACTORS
330
3A6
102
}
330
3A6
100
AcDbVisualStyle
  2
EdgeColorOff
 70
    22
177
     2
291
     1
 71
     2
176
     0
 72
     2
176
     0
 73
     0
176
     0
 90
        0
176
     0
 40
0.6
176
     0
 41
30.0
176
     0
 63
     7
421
 16777215
176
     0
 74
     1
176
     0
 91
        4
176
     0
 64
     7
176
     0
 65
   257
176
     0
 75
     1
176
     0
175
     1
176
     0
 42
1.0
176
     0
 92
        8
176
     2
 66
     7
176
     0
 43
1.0
176
     0
 76
     1
176
     0
 77
     6
176
     0
 78
     2
176
     0
 67
     7
176
     0
 79
     5
176
     0
170
     0
176
     0
171
     0
176
     0
290
     0
176
     0
 93
        1
176
     0
 44
0.0
176
     0
173
     0
176
     0
  0
VISUALSTYLE
  5
3B5
102
{ACAD_REACTORS
330
3A6
102
}
330
3A6
100
AcDbVisualStyle
  2
Facepattern
 70
    15
177
     2
291
     1
 71
     2
176
     1
 72
     2
176
     1
 73
     0
176
     1
 90
        0
176
     1
 40
0.6
176
     1
 41
30.0
176
     1
 63
     7
421
 16777215
176
     1
 74
     1
176
     1
 91
        4
176
     1
 64
     7
176
     1
 65
   257
176
     1
 75
     1
176
     1
175
     1
176
     1
 42
1.0
176
     1
 92
        8
176
     1
 66
     7
176
     1
 43
1.0
176
     1
 76
     1
176
     1
 77
     6
176
     1
 78
     2
176
     1
 67
     7
176
     1
 79
     5
176
     1
170
     0
176
     1
171
     0
176
     1
290
     0
176
     1
 93
        1
176
     1
 44
0.0
176
     1
173
     0
176
     1
  0
VISUALSTYLE
  5
3A7
102
{ACAD_REACTORS
330
3A6
102
}
330
3A6
100
AcDbVisualStyle
  2
Flat
 70
     0
177
     2
291
     1
 71
     2
176
     1
 72
     1
176
     1
 73
     1
176
     1
 90
        2
176
     1
 40
0.6
176
     1
 41
30.0
176
     1
 63
     7
421
 16777215
176
     1
 74
     0
176
     1
 91
        4
176
     1
 64
     7
176
     1
 65
   257
176
     1
 75
     1
176
     1
175
     1
176
     1
 42
1.0
176
     1
 92
        8
176
     1
 66
     7
176
     1
 43
1.0
176
     1
 76
     1
176
     1
 77
     6
176
     1
 78
     2
176
     1
 67
     7
176
     1
 79
     5
176
     1
170
     0
176
     1
171
     0
176
     1
290
     0
176
     1
 93
       13
176
     1
 44
0.0
176
     1
173
     0
176
     1
  0
VISUALSTYLE
  5
3A8
102
{ACAD_REACTORS
330
3A6
102
}
330
3A6
100
AcDbVisualStyle
  2
FlatWithEdges
 70
     1
177
     2
291
     1
 71
     2
176
     1
 72
     1
176
     1
 73
     1
176
     1
 90
        2
176
     1
 40
0.6
176
     1
 41
30.0
176
     1
 63
     7
421
 16777215
176
     1
 74
     1
176
     1
 91
        4
176
     1
 64
     7
176
     1
 65
   257
176
     1
 75
     1
176
     1
175
     1
176
     1
 42
1.0
176
     1
 92
        0
176
     1
 66
   257
176
     1
 43
1.0
176
     1
 76
     1
176
     1
 77
     6
176
     1
 78
     2
176
     1
 67
     7
176
     1
 79
     5
176
     1
170
     0
176
     1
171
     0
176
     1
290
     0
176
     1
 93
       13
176
     1
 44
0.0
176
     1
173
     0
176
     1
  0
VISUALSTYLE
  5
3A9
102
{ACAD_REACTORS
330
3A6
102
}
330
3A6
100
AcDbVisualStyle
  2
Gouraud
 70
     2
177
     2
291
     1
 71
     2
176
     1
 72
     2
176
     1
 73
     1
176
     1
 90
        2
176
     1
 40
0.6
176
     1
 41
30.0
176
     1
 63
     7
421
 16777215
176
     1
 74
     0
176
     1
 91
        4
176
     1
 64
     7
176
     1
 65
   257
176
     1
 75
     1
176
     1
175
     1
176
     1
 42
1.0
176
     1
 92
        0
176
     1
 66
     7
176
     1
 43
1.0
176
     1
 76
     1
176
     1
 77
     6
176
     1
 78
     2
176
     1
 67
     7
176
     1
 79
     5
176
     1
170
     0
176
     1
171
     0
176
     1
290
     0
176
     1
 93
       13
176
     1
 44
0.0
176
     1
173
     0
176
     1
  0
VISUALSTYLE
  5
3AA
102
{ACAD_REACTORS
330
3A6
102
}
330
3A6
100
AcDbVisualStyle
  2
GouraudWithEdges
 70
     3
177
     2
291
     1
 71
     2
176
     1
 72
     2
176
     1
 73
     1
176
     1
 90
        2
176
     1
 40
0.6
176
     1
 41
30.0
176
     1
 63
     7
421
 16777215
176
     1
 74
     1
176
     1
 91
        4
176
     1
 64
     7
176
     1
 65
   257
176
     1
 75
     1
176
     1
175
     1
176
     1
 42
1.0
176
     1
 92
        0
176
     1
 66
   257
176
     1
 43
1.0
176
     1
 76
     1
176
     1
 77
     6
176
     1
 78
     2
176
     1
 67
     7
176
     1
 79
     5
176
     1
170
     0
176
     1
171
     0
176
     1
290
     0
176
     1
 93
       13
176
     1
 44
0.0
176
     1
173
     0
176
     1
  0
VISUALSTYLE
  5
3B7
102
{ACAD_REACTORS
330
3A6
102
}
330
3A6
100
AcDbVisualStyle
  2
JitterOff
 70
    20
177
     2
291
     1
 71
     2
176
     0
 72
     2
176
     0
 73
     0
176
     0
 90
        0
176
     0
 40
0.6
176
     0
 41
30.0
176
     0
 63
     7
421
 16777215
176
     0
 74
     1
176
     0
 91
        4
176
     0
 64
     7
176
     0
 65
   257
176
     0
 75
     1
176
     0
175
     1
176
     0
 42
1.0
176
     0
 92
       10
176
     2
 66
     7
176
     0
 43
1.0
176
     0
 76
     1
176
     0
 77
     6
176
     0
 78
     2
176
     0
 67
     7
176
     0
 79
     5
176
     0
170
     0
176
     0
171
     0
176
     0
290
     0
176
     0
 93
        1
176
     0
 44
0.0
176
     0
173
     0
176
     0
  0
VISUALSTYLE
  5
3B4
102
{ACAD_REACTORS
330
3A6
102
}
330
3A6
100
AcDbVisualStyle
  2
Linepattern
 70
    14
177
     2
291
     1
 71
     2
176
     1
 72
     2
176
     1
 73
     0
176
     1
 90
        0
176
     1
 40
0.6
176
     1
 41
30.0
176
     1
 63
     7
421
 16777215
176
     1
 74
     1
176
     1
 91
        4
176
     1
 64
     7
176
     1
 65
   257
176
     1
 75
     7
176
     1
175
     7
176
     1
 42
1.0
176
     1
 92
        8
176
     1
 66
     7
176
     1
 43
1.0
176
     1
 76
     1
176
     1
 77
     6
176
     1
 78
     2
176
     1
 67
     7
176
     1
 79
     5
176
     1
170
     0
176
     1
171
     0
176
     1
290
     0
176
     1
 93
        1
176
     1
 44
0.0
176
     1
173
     0
176
     1
  0
VISUALSTYLE
  5
3B8
102
{ACAD_REACTORS
330
3A6
102
}
330
3A6
100
AcDbVisualStyle
  2
OverhangOff
 70
    21
177
     2
291
     1
 71
     2
176
     0
 72
     2
176
     0
 73
     0
176
     0
 90
        0
176
     0
 40
0.6
176
     0
 41
30.0
176
     0
 63
     7
421
 16777215
176
     0
 74
     1
176
     0
 91
        4
176
     0
 64
     7
176
     0
 65
   257
176
     0
 75
     1
176
     0
175
     1
176
     0
 42
1.0
176
     0
 92
        9
176
     2
 66
     7
176
     0
 43
1.0
176
     0
 76
     1
176
     0
 77
     6
176
     0
 78
     2
176
     0
 67
     7
176
     0
 79
     5
176
     0
170
     0
176
     0
171
     0
176
     0
290
     0
176
     0
 93
        1
176
     0
 44
0.0
176
     0
173
     0
176
     0
  0
VISUALSTYLE
  5
3B0
102
{ACAD_REACTORS
330
3A6
102
}
330
3A6
100
AcDbVisualStyle
  2
Realistic
 70
     8
177
     2
291
     0
 71
     2
176
     1
 72
     2
176
     1
 73
     0
176
     1
 90
        0
176
     1
 40
0.6
176
     1
 41
30.0
176
     1
 63
     7
421
 16777215
176
     1
 74
     1
176
     1
 91
        0
176
     1
 64
     7
176
     1
 65
   257
176
     1
 75
     1
176
     1
175
     1
176
     1
 42
1.0
176
     1
 92
        8
176
     1
 66
     8
424
  7895160
176
     1
 43
1.0
176
     1
 76
     1
176
     1
 77
     6
176
     1
 78
     2
176
     1
 67
     7
176
     1
 79
     5
176
     1
170
     0
176
     1
171
     0
176
     1
290
     0
176
     1
 93
       13
176
     1
 44
0.0
176
     1
173
     0
176
     1
  0
VISUALSTYLE
  5
3B3
102
{ACAD_REACTORS
330
3A6
102
}
330
3A6
100
AcDbVisualStyle
  2
Thicken
 70
    13
177
     2
291
     1
 71
     2
176
     1
 72
     2
176
     1
 73
     0
176
     1
 90
        0
176
     1
 40
0.6
176
     1
 41
30.0
176
     1
 63
     7
421
 16777215
176
     1
 74
     1
176
     1
 91
        4
176
     1
 64
     7
176
     1
 65
   257
176
     1
 75
     1
176
     1
175
     1
176
     1
 42
1.0
176
     1
 92
       12
176
     1
 66
     7
176
     1
 43
1.0
176
     1
 76
     1
176
     1
 77
     6
176
     1
 78
     2
176
     1
 67
     7
176
     1
 79
     5
176
     1
170
     0
176
     1
171
     0
176
     1
290
     0
176
     1
 93
        1
176
     1
 44
0.0
176
     1
173
     0
176
     1
  0
DICTIONARYVAR
  5
43C
102
{ACAD_REACTORS
330
438
102
}
330
438
100
DictionaryVariables
280
     0
  1
1:1
  0
DICTIONARYVAR
  5
43A
102
{ACAD_REACTORS
330
438
102
}
330
438
100
DictionaryVariables
280
     0
  1
STANDARD
  0
DICTIONARYVAR
  5
439
102
{ACAD_REACTORS
330
438
102
}
330
438
100
DictionaryVariables
280
     0
  1
STANDARD
  0
DICTIONARYVAR
  5
43E
102
{ACAD_REACTORS
330
438
102
}
330
438
100
DictionaryVariables
280
     0
  1
1
  0
DICTIONARYVAR
  5
43F
102
{ACAD_REACTORS
330
438
102
}
330
438
100
DictionaryVariables
280
     0
  1
15
  0
DICTIONARYVAR
  5
43D
102
{ACAD_REACTORS
330
438
102
}
330
438
100
DictionaryVariables
280
     0
  1
0
  0
DICTIONARYVAR
  5
43B
102
{ACAD_REACTORS
330
438
102
}
330
438
100
DictionaryVariables
280
     0
  1
0
  0
DICTIONARY
  5
397
330
396
100
AcDbDictionary
280
     1
281
     1
  3
BUMPTILE
360
399
  3
DIFFUSETILE
360
398
  3
OPACITYTILE
360
39C
  3
REFLECTIONTILE
360
39B
  3
REFRACTIONTILE
360
39D
  3
SPECULARTILE
360
39A
  0
DICTIONARY
  5
38F
330
38E
100
AcDbDictionary
280
     1
281
     1
  3
BUMPTILE
360
391
  3
DIFFUSETILE
360
390
  3
OPACITYTILE
360
394
  3
REFLECTIONTILE
360
393
  3
REFRACTIONTILE
360
395
  3
SPECULARTILE
360
392
  0
DICTIONARY
  5
39F
330
39E
100
AcDbDictionary
280
     1
281
     1
  3
BUMPTILE
360
3A1
  3
DIFFUSETILE
360
3A0
  3
OPACITYTILE
360
3A4
  3
REFLECTIONTILE
360
3A3
  3
REFRACTIONTILE
360
3A5
  3
SPECULARTILE
360
3A2
  0
DICTIONARY
  5
444
330
3BC
100
AcDbDictionary
280
     1
281
     1
  3
ACAD_ROUNDTRIP_2008_TABLESTYLE_CELLSTYLEMAP
360
445
  0
XRECORD
  5
399
102
{ACAD_REACTORS
330
397
102
}
330
397
100
AcDbXrecord
280
     1
270
     1
271
     1
  0
XRECORD
  5
398
102
{ACAD_REACTORS
330
397
102
}
330
397
100
AcDbXrecord
280
     1
270
     1
271
     1
  0
XRECORD
  5
39C
102
{ACAD_REACTORS
330
397
102
}
330
397
100
AcDbXrecord
280
     1
270
     1
271
     1
  0
XRECORD
  5
39B
102
{ACAD_REACTORS
330
397
102
}
330
397
100
AcDbXrecord
280
     1
270
     1
271
     1
  0
XRECORD
  5
39D
102
{ACAD_REACTORS
330
397
102
}
330
397
100
AcDbXrecord
280
     1
270
     1
271
     1
  0
XRECORD
  5
39A
102
{ACAD_REACTORS
330
397
102
}
330
397
100
AcDbXrecord
280
     1
270
     1
271
     1
  0
XRECORD
  5
391
102
{ACAD_REACTORS
330
38F
102
}
330
38F
100
AcDbXrecord
280
     1
270
     1
271
     1
  0
XRECORD
  5
390
102
{ACAD_REACTORS
330
38F
102
}
330
38F
100
AcDbXrecord
280
     1
270
     1
271
     1
  0
XRECORD
  5
394
102
{ACAD_REACTORS
330
38F
102
}
330
38F
100
AcDbXrecord
280
     1
270
     1
271
     1
  0
XRECORD
  5
393
102
{ACAD_REACTORS
330
38F
102
}
330
38F
100
AcDbXrecord
280
     1
270
     1
271
     1
  0
XRECORD
  5
395
102
{ACAD_REACTORS
330
38F
102
}
330
38F
100
AcDbXrecord
280
     1
270
     1
271
     1
  0
XRECORD
  5
392
102
{ACAD_REACTORS
330
38F
102
}
330
38F
100
AcDbXrecord
280
     1
270
     1
271
     1
  0
XRECORD
  5
3A1
102
{ACAD_REACTORS
330
39F
102
}
330
39F
100
AcDbXrecord
280
     1
270
     1
271
     1
  0
XRECORD
  5
3A0
102
{ACAD_REACTORS
330
39F
102
}
330
39F
100
AcDbXrecord
280
     1
270
     1
271
     1
  0
XRECORD
  5
3A4
102
{ACAD_REACTORS
330
39F
102
}
330
39F
100
AcDbXrecord
280
     1
270
     1
271
     1
  0
XRECORD
  5
3A3
102
{ACAD_REACTORS
330
39F
102
}
330
39F
100
AcDbXrecord
280
     1
270
     1
271
     1
  0
XRECORD
  5
3A5
102
{ACAD_REACTORS
330
39F
102
}
330
39F
100
AcDbXrecord
280
     1
270
     1
271
     1
  0
XRECORD
  5
3A2
102
{ACAD_REACTORS
330
39F
102
}
330
39F
100
AcDbXrecord
280
     1
270
     1
271
     1
  0
CELLSTYLEMAP
  5
445
102
{ACAD_REACTORS
330
444
102
}
330
444
100
AcDbCellStyleMap
 90
        3
300
CELLSTYLE
  1
TABLEFORMAT_BEGIN
 90
        5
170
     1
 91
        0
 92
    32768
 62
   257
 93
        1
300
CONTENTFORMAT
  1
CONTENTFORMAT_BEGIN
 90
        0
 91
        0
 92
      512
 93
        0
300

 40
0.0
140
1.0
 94
        5
 62
     0
340
17
144
6.0
309
CONTENTFORMAT_END
171
     1
301
MARGIN
  1
CELLMARGIN_BEGIN
 40
1.5
 40
1.5
 40
1.5
 40
1.5
 40
4.5
 40
4.5
309
CELLMARGIN_END
 94
        6
 95
        1
302
GRIDFORMAT
  1
GRIDFORMAT_BEGIN
 90
        0
 91
        1
 62
     0
 92
       -2
340
0
 93
        0
 40
1.125
309
GRIDFORMAT_END
 95
        2
302
GRIDFORMAT
  1
GRIDFORMAT_BEGIN
 90
        0
 91
        1
 62
     0
 92
       -2
340
0
 93
        0
 40
1.125
309
GRIDFORMAT_END
 95
        4
302
GRIDFORMAT
  1
GRIDFORMAT_BEGIN
 90
        0
 91
        1
 62
     0
 92
       -2
340
0
 93
        0
 40
1.125
309
GRIDFORMAT_END
 95
        8
302
GRIDFORMAT
  1
GRIDFORMAT_BEGIN
 90
        0
 91
        1
 62
     0
 92
       -2
340
0
 93
        0
 40
1.125
309
GRIDFORMAT_END
 95
       16
302
GRIDFORMAT
  1
GRIDFORMAT_BEGIN
 90
        0
 91
        1
 62
     0
 92
       -2
340
0
 93
        0
 40
1.125
309
GRIDFORMAT_END
 95
       32
302
GRIDFORMAT
  1
GRIDFORMAT_BEGIN
 90
        0
 91
        1
 62
     0
 92
       -2
340
0
 93
        0
 40
1.125
309
GRIDFORMAT_END
309
TABLEFORMAT_END
  1
CELLSTYLE_BEGIN
 90
        1
 91
        1
300
_TITLE
309
CELLSTYLE_END
300
CELLSTYLE
  1
TABLEFORMAT_BEGIN
 90
        5
170
     1
 91
        0
 92
        0
 62
   257
 93
        1
300
CONTENTFORMAT
  1
CONTENTFORMAT_BEGIN
 90
        0
 91
        0
 92
      512
 93
        0
300

 40
0.0
140
1.0
 94
        5
 62
     0
340
17
144
4.5
309
CONTENTFORMAT_END
171
     1
301
MARGIN
  1
CELLMARGIN_BEGIN
 40
1.5
 40
1.5
 40
1.5
 40
1.5
 40
4.5
 40
4.5
309
CELLMARGIN_END
 94
        6
 95
        1
302
GRIDFORMAT
  1
GRIDFORMAT_BEGIN
 90
        0
 91
        1
 62
     0
 92
       -2
340
0
 93
        0
 40
1.125
309
GRIDFORMAT_END
 95
        2
302
GRIDFORMAT
  1
GRIDFORMAT_BEGIN
 90
        0
 91
        1
 62
     0
 92
       -2
340
0
 93
        0
 40
1.125
309
GRIDFORMAT_END
 95
        4
302
GRIDFORMAT
  1
GRIDFORMAT_BEGIN
 90
        0
 91
        1
 62
     0
 92
       -2
340
0
 93
        0
 40
1.125
309
GRIDFORMAT_END
 95
        8
302
GRIDFORMAT
  1
GRIDFORMAT_BEGIN
 90
        0
 91
        1
 62
     0
 92
       -2
340
0
 93
        0
 40
1.125
309
GRIDFORMAT_END
 95
       16
302
GRIDFORMAT
  1
GRIDFORMAT_BEGIN
 90
        0
 91
        1
 62
     0
 92
       -2
340
0
 93
        0
 40
1.125
309
GRIDFORMAT_END
 95
       32
302
GRIDFORMAT
  1
GRIDFORMAT_BEGIN
 90
        0
 91
        1
 62
     0
 92
       -2
340
0
 93
        0
 40
1.125
309
GRIDFORMAT_END
309
TABLEFORMAT_END
  1
CELLSTYLE_BEGIN
 90
        2
 91
        1
300
_HEADER
309
CELLSTYLE_END
300
CELLSTYLE
  1
TABLEFORMAT_BEGIN
 90
        5
170
     1
 91
        0
 92
        0
 62
   257
 93
        1
300
CONTENTFORMAT
  1
CONTENTFORMAT_BEGIN
 90
        0
 91
        0
 92
      512
 93
        0
300

 40
0.0
140
1.0
 94
        2
 62
     0
340
17
144
4.5
309
CONTENTFORMAT_END
171
     1
301
MARGIN
  1
CELLMARGIN_BEGIN
 40
1.5
 40
1.5
 40
1.5
 40
1.5
 40
4.5
 40
4.5
309
CELLMARGIN_END
 94
        6
 95
        1
302
GRIDFORMAT
  1
GRIDFORMAT_BEGIN
 90
        0
 91
        1
 62
     0
 92
       -2
340
0
 93
        0
 40
1.125
309
GRIDFORMAT_END
 95
        2
302
GRIDFORMAT
  1
GRIDFORMAT_BEGIN
 90
        0
 91
        1
 62
     0
 92
       -2
340
0
 93
        0
 40
1.125
309
GRIDFORMAT_END
 95
        4
302
GRIDFORMAT
  1
GRIDFORMAT_BEGIN
 90
        0
 91
        1
 62
     0
 92
       -2
340
0
 93
        0
 40
1.125
309
GRIDFORMAT_END
 95
        8
302
GRIDFORMAT
  1
GRIDFORMAT_BEGIN
 90
        0
 91
        1
 62
     0
 92
       -2
340
0
 93
        0
 40
1.125
309
GRIDFORMAT_END
 95
       16
302
GRIDFORMAT
  1
GRIDFORMAT_BEGIN
 90
        0
 91
        1
 62
     0
 92
       -2
340
0
 93
        0
 40
1.125
309
GRIDFORMAT_END
 95
       32
302
GRIDFORMAT
  1
GRIDFORMAT_BEGIN
 90
        0
 91
        1
 62
     0
 92
       -2
340
0
 93
        0
 40
1.125
309
GRIDFORMAT_END
309
TABLEFORMAT_END
  1
CELLSTYLE_BEGIN
 90
        3
 91
        2
300
_DATA
309
CELLSTYLE_END
  0
ENDSEC
  0
EOF
